<?xml version="1.0" standalone="no"?>
<!DOCTYPE svg PUBLIC "-//W3C//DTD SVG 1.1//EN" "http://www.w3.org/Graphics/SVG/1.1/DTD/svg11.dtd" >
<svg xmlns="http://www.w3.org/2000/svg">
<metadata>Generated by IcoMoon</metadata>
<defs>
<font id="ekho-icon" horiz-adv-x="1024">
<font-face units-per-em="1024" ascent="960" descent="-64" />
<missing-glyph horiz-adv-x="1024" />
<glyph unicode="&#x20;" horiz-adv-x="512" d="" />
<glyph unicode="&#xe900;" glyph-name="glasses" horiz-adv-x="1152" d="M233.6 832c-28.8 0-53.8-19.4-61-47.2l-96.4-373.6c62 24 130 36.8 195.2 36.8 80.2 0 164.4-19.2 237-54.6 5.2-2.6 9.8-5.8 14-9.4h107.4c4.2 3.6 8.8 6.8 14 9.4 72.4 35.6 156.8 54.6 237 54.6 65.2 0 133.2-12.6 195.2-36.8l-96.6 373.6c-7.2 27.8-32.2 47.2-61 47.2-9.8 0-19.4-2.2-28.2-6.6l-44-22c-15.8-8-35-1.4-43 14.4s-1.4 35 14.4 43l44 22c17.6 8.8 37 13.4 56.8 13.4 58 0 108.4-39.2 123-95.2l101.4-393.2c6-23.6 9.2-47.6 9.2-72v-79.6c0-0.4 0-0.6 0-1v-31c0-123.8-100.2-224-224-224h-88.6c-118.8 0-217 92.8-223.6 211.6l-7 108.2h-65.8l-6.8-108.4c-6.4-118.8-104.6-211.6-223.6-211.6h-88.6c-123.8 0-224 100.2-224 224v112.4c0 24 3.2 47.8 9.2 71l101.4 393.4c14.4 56 65 95.2 123 95.2 19.8 0 39.2-4.6 56.8-13.4l44-22c15.8-8 22.2-27.2 14.4-43s-27.2-22.2-43-14.4l-44 22c-8.8 4.4-18.4 6.6-28.2 6.6zM64 336v-112c0-88.4 71.6-160 160-160h88.6c85 0 155 66.4 159.8 151.2v0.4s0 0 0 0l7.6 120.4s0 0 0 0c0 0 0 0 0 0.2-63.6 31-138 48-208.6 48-70.2 0-144.4-16.8-207.4-48zM1088 336c-62.8 31.2-137.2 48-207.4 48-70.6 0-145-17-208.6-48v-0.2s0 0 0 0l7.6-120.4s0 0 0 0v-0.4c4.8-84.8 74.8-151.2 159.8-151.2h88.6c88.4 0 160 71.6 160 160v112z" />
<glyph unicode="&#xe901;" glyph-name="comment-lines-solid" d="M512 896c-283 0-512-186.4-512-416 0-93.2 39.2-174.2 94.8-241 0-0.2 0.2-0.2 0.2-0.4-5.2-45.2-19-87-42.6-126.2-13-21.6-27-41.6-43.4-58-9-9.2-11.8-23-6.8-34.8s16.6-19.6 29.6-19.6c57.4 0 115.2 17.8 163.2 38.6 38.4 16.8 74.2 37.4 107.8 61 0.4 0.2 1 0.4 1.4 0.2 66.8-22.4 135.8-35.8 207.8-35.8 283 0 512 186.4 512 416s-229 416-512 416zM544 352h-256c-17.6 0-32 14.4-32 32s14.4 32 32 32h256c17.6 0 32-14.4 32-32s-14.4-32-32-32zM736 544h-448c-17.6 0-32 14.4-32 32s14.4 32 32 32h448c17.6 0 32-14.4 32-32s-14.4-32-32-32z" />
<glyph unicode="&#xe902;" glyph-name="comment-lines" d="M64 480c0 182.8 187.6 352 448 352s448-169.2 448-352-187.6-352-448-352c-64 0-126 11.8-187 32.4-19.8 6.6-41.4 3.6-58.4-8.4-30.8-21.4-62.8-40-96.8-54.8l12.6-29.2-12.8 29.4c-21-9.2-43-17.2-65.4-23 1 1.8 2.2 3.6 3.2 5.2 28.6 47.4 45.2 98.4 51.4 152.6 2 18.4-4.2 35.4-14.8 47.8-49 58.8-80 125.8-80 200zM512 896c-283 0-512-186.4-512-416 0-93.2 39.2-174.2 94.8-241 0-0.2 0.2-0.2 0.2-0.4-5.2-45.2-19-87-42.6-126.2-13-21.6-27-41.6-43.4-58-9-9.2-11.8-23-6.8-34.8s16.6-19.6 29.6-19.6c57.4 0 115.2 17.8 163.2 38.6 38.4 16.8 74.2 37.4 107.8 61 0.4 0.2 1 0.4 1.4 0.2 66.8-22.4 135.8-35.8 207.8-35.8 283 0 512 186.4 512 416s-229 416-512 416zM288 608c-17.6 0-32-14.4-32-32s14.4-32 32-32h448c17.6 0 32 14.4 32 32s-14.4 32-32 32h-448zM288 416c-17.6 0-32-14.4-32-32s14.4-32 32-32h256c17.6 0 32 14.4 32 32s-14.4 32-32 32h-256z" />
<glyph unicode="&#xe903;" glyph-name="bars" horiz-adv-x="896" d="M0 784c0 26.6 21.4 48 48 48h800c26.6 0 48-21.4 48-48s-21.4-48-48-48h-800c-26.6 0-48 21.4-48 48zM0 464c0 26.6 21.4 48 48 48h800c26.6 0 48-21.4 48-48s-21.4-48-48-48h-800c-26.6 0-48 21.4-48 48zM896 144c0-26.6-21.4-48-48-48h-800c-26.6 0-48 21.4-48 48s21.4 48 48 48h800c26.6 0 48-21.4 48-48z" />
<glyph unicode="&#xe904;" glyph-name="ellipsis-vertical" horiz-adv-x="256" d="M128 224c-53.019 0-96-42.981-96-96s42.981-96 96-96v0c53.019 0 96 42.981 96 96s-42.981 96-96 96v0zM128 544c-53.019 0-96-42.981-96-96s42.981-96 96-96v0c53.019 0 96 42.981 96 96s-42.981 96-96 96v0zM224 768c0 53.019-42.981 96-96 96s-96-42.981-96-96v0c0-53.019 42.981-96 96-96s96 42.981 96 96v0z" />
<glyph unicode="&#xe905;" glyph-name="paper-plane-top" d="M6.8 803.4c-12 24-7.8 53 10.6 72.6s47 25.4 71.8 15l896-384c23.6-10 38.8-33.2 38.8-58.8s-15.2-48.8-38.8-58.8l-896-384c-24.6-10.6-53.4-4.6-71.8 15s-22.6 48.6-10.6 72.6l177.6 355-177.6 355.4zM240 416l-176-352 821.4 352h-645.4zM885.4 480l-821.4 352 176-352h645.4z" />
<glyph unicode="&#xe906;" glyph-name="paper-plane-solid" d="M996.2 948.8c20.2-14 30.8-38.2 27-62.4l-128-832c-3-19.4-14.8-36.4-32-46s-37.8-10.8-56-3.2l-239.2 99.4-137-148.2c-17.8-19.4-45.8-25.8-70.4-16.2s-40.6 33.4-40.6 59.8v167.2c0 8 3 15.6 8.4 21.6l335.2 365.6c11.6 12.6 11.2 32-0.8 44s-31.4 12.8-44 1.4l-406.8-361.4-176.6 88.4c-21.2 10.6-34.8 31.8-35.4 55.4s11.8 45.6 32.2 57.4l896 512c21.4 12.2 47.8 11 68-2.8z" />
<glyph unicode="&#xe907;" glyph-name="post" d="M791.6 880.8c18.8 18.8 49.2 18.8 67.8 0l85.2-85.2c18.8-18.8 18.8-49.2 0-67.8l-109.4-109.8-153.2 153.2s109.6 109.6 109.6 109.6zM636.8 726l153.2-153.2-438-438v25.2c0 17.6-14.4 32-32 32h-64v64c0 17.6-14.4 32-32 32h-25.2l438 438zM133.8 201c2.4 8 5.4 15.8 9.4 23h48.8v-64c0-17.6 14.4-32 32-32h64v-48.8c-7.4-3.8-15-7-23.2-9.4l-185.6-54.6 54.6 185.6v0.2zM904.8 926c-43.8 43.8-114.6 43.8-158.4 0l-625.6-625.4c-22.8-22.8-39.4-50.8-48.4-81.6l-71-242c-3.4-11.2-0.2-23.4 8-31.6s20.4-11.4 31.6-8l242 71.2c30.8 9 58.8 25.8 81.6 48.4l625.4 625.4c43.8 43.8 43.8 114.6 0 158.4l-85.2 85.2zM662.6 554.6c12.4 12.4 12.4 32.8 0 45.2s-32.8 12.4-45.2 0l-256-256c-12.4-12.4-12.4-32.8 0-45.2s32.8-12.4 45.2 0l256 256z" />
<glyph unicode="&#xe908;" glyph-name="share-solid" d="M614 890.4c-23-10.2-38-33.2-38-58.4v-128h-224c-194.4 0-352-157.6-352-352 0-226.6 163-327.8 200.4-348.2 5-2.8 10.6-3.8 16.2-3.8 21.8 0 39.4 17.8 39.4 39.4 0 15-8.6 28.8-19.6 39-18.8 17.8-44.4 52.8-44.4 113.6 0 106 86 192 192 192h192v-128c0-25.2 14.8-48.2 38-58.4s50-6 68.8 10.8l320 288c13.4 12.2 21.2 29.4 21.2 47.6s-7.6 35.4-21.2 47.6l-320 288c-18.8 17-45.8 21.2-68.8 10.8v0z" />
<glyph unicode="&#xe909;" glyph-name="share" d="M592 640c26.6 0 48 21.4 48 48v144l320-288-320-288v144c0 26.6-21.4 48-48 48h-208c-141.4 0-256-114.6-256-256 0-16.6 1.4-32.2 4-46.4-36.2 47-68 114.2-68 206.4 0 159 129 288 288 288h240zM576 352v-96c0-25.2 14.8-48.2 38-58.4s50-6 68.8 10.8l320 288c13.4 12.2 21.2 29.4 21.2 47.6s-7.6 35.4-21.2 47.6l-320 288c-18.8 17-45.8 21.2-68.8 10.8s-38-33.2-38-58.4v-128h-224c-194.4 0-352-157.6-352-352 0-226.6 163-327.8 200.4-348.2 5-2.8 10.6-3.8 16.2-3.8 21.8 0 39.4 17.8 39.4 39.4 0 15-8.6 28.8-19.6 39-18.8 17.8-44.4 52.8-44.4 113.6 0 106 86 192 192 192h192v-32z" />
<glyph unicode="&#xe90a;" glyph-name="thumb-solid" d="M626.8 894.2c52-10.4 85.8-61 75.4-113l-4.6-22.8c-10.6-53.4-30.2-104.2-57.6-150.4h288c53 0 96-43 96-96 0-37-21-69.2-51.8-85.2 21.8-17.6 35.8-44.6 35.8-74.8 0-46.8-33.6-85.8-77.8-94.2 8.8-14.6 13.8-31.6 13.8-49.8 0-42.6-27.8-78.8-66.2-91.2 1.4-6.6 2.2-13.6 2.2-20.8 0-53-43-96-96-96h-195c-38 0-75 11.2-106.6 32.2l-77 51.4c-53.4 35.6-85.4 95.6-85.4 159.8v222.4c0 58.4 26.6 113.4 72 150l14.8 11.8c53 42.4 89.2 102 102.4 168.4l4.6 22.8c10.4 52 61 85.8 113 75.4v0zM64 576h128c35.4 0 64-28.6 64-64v-448c0-35.4-28.6-64-64-64h-128c-35.4 0-64 28.6-64 64v448c0 35.4 28.6 64 64 64z" />
<glyph unicode="&#xe90b;" glyph-name="post-solid" d="M820.6 498l22.6 22.6-259.8 259.8-466.2-466.2c-20.8-20.8-36-46.6-44.4-74.8l-70.8-240.8c-5-16.8-0.4-35 12.2-47.4s30.6-17 47.4-12.2l240.6 70.8c28.2 8.4 54 23.6 74.8 44.4l443.6 443.8zM320 161.2l-18.2-45.4c-8-6.2-17-10.8-26.6-13.8l-156.4-46 46 156.2c2.8 9.8 7.6 18.8 13.8 26.6l45.4 18.2v-64c0-17.6 14.4-32 32-32h64v0.2zM725.4 922.6l-28.8-29-45.2-45.2-22.8-22.6 259.8-259.8 96.8 96.8c50 50 50 131 0 181l-78.6 78.8c-50 50-131 50-181 0h-0.2zM630.6 586.6l-288-288c-12.4-12.4-32.8-12.4-45.2 0s-12.4 32.8 0 45.2l288 288c12.4 12.4 32.8 12.4 45.2 0s12.4-32.8 0-45.2v0z" />
<glyph unicode="&#xe90c;" glyph-name="mention" d="M508.94 896c-247.4 0-448-200.6-448-448s200.6-448 448-448c17.6 0 32-14.4 32-32s-14.4-32-32-32c-282.8 0-512 229.2-512 512s229.2 512 512 512 512-229.2 512-512v-48c0-97.2-78.8-176-176-176-66.8 0-125 37.4-154.8 92.2-40.8-56-106.8-92.2-181.2-92.2-123.8 0-224 100.2-224 224s100.2 224 224 224c62.6 0 119.4-25.8 160-67.2v3.2c0 17.6 14.4 32 32 32s32-14.4 32-32v-208c0-61.8 50.2-112 112-112s112 50.2 112 112v48c0 247.4-200.6 448-448 448zM668.94 448c0 88.36-71.64 160-160 160s-160-71.64-160-160 71.64-160 160-160 160 71.64 160 160z" />
<glyph unicode="&#xe90d;" glyph-name="mention-solid" d="M512 832c-212 0-384-172-384-384s172-384 384-384c35.4 0 64-28.6 64-64s-28.6-64-64-64c-282.8 0-512 229.2-512 512s229.2 512 512 512 512-229.2 512-512v-64c0-106-86-192-192-192-58.6 0-111.2 26.4-146.4 67.8-45.6-42-106.6-67.8-173.6-67.8-141.4 0-256 114.6-256 256s114.6 256 256 256c55.8 0 107.4-17.8 149.4-48.2 11.4 10 26.2 16.2 42.6 16.2 35.4 0 64-28.6 64-64v-224c0-35.4 28.6-64 64-64s64 28.6 64 64v64c0 212-172 384-384 384zM640 448c0 70.7-57.3 128-128 128s-128-57.3-128-128 57.3-128 128-128 128 57.3 128 128z" />
<glyph unicode="&#xe90e;" glyph-name="user" horiz-adv-x="896" d="M640 704c0 106.039-85.961 192-192 192s-192-85.961-192-192v0c0-106.039 85.961-192 192-192s192 85.961 192 192v0zM192 704c0 141.385 114.615 256 256 256s256-114.615 256-256v0c0-141.385-114.615-256-256-256s-256 114.615-256 256v0zM64 0h768c-2.4 159.4-132.4 288-292.6 288h-182.8c-160 0-290-128.6-292.6-288zM0-4.6c0 197 159.6 356.6 356.6 356.6h182.8c197 0 356.6-159.6 356.6-356.6 0-32.8-26.6-59.4-59.4-59.4h-777.2c-32.8 0-59.4 26.6-59.4 59.4z" />
<glyph unicode="&#xe90f;" glyph-name="users" horiz-adv-x="1280" d="M192 800c0 53.019 42.981 96 96 96s96-42.981 96-96v0c0-53.019-42.981-96-96-96s-96 42.981-96 96v0zM448 800c0 88.366-71.634 160-160 160s-160-71.634-160-160v0c0-88.366 71.634-160 160-160s160 71.634 160 160v0zM640 640c70.692 0 128-57.308 128-128s-57.308-128-128-128v0c-70.692 0-128 57.308-128 128s57.308 128 128 128v0zM640 320c106.039 0 192 85.961 192 192s-85.961 192-192 192v0c-106.039 0-192-85.961-192-192s85.961-192 192-192v0zM522.6 192h234.6c108.4 0 196.8-85 202.4-192h-639.4c5.6 107 94 192 202.4 192zM522.6 256c-147.2 0-266.6-119.4-266.6-266.6 0-29.4 23.8-53.4 53.4-53.4h661.4c29.4 0 53.4 23.8 53.4 53.4-0.2 147.2-119.6 266.6-266.8 266.6h-234.6zM1024 896c53.019 0 96-42.981 96-96s-42.981-96-96-96v0c-53.019 0-96 42.981-96 96s42.981 96 96 96v0zM1024 640c88.366 0 160 71.634 160 160s-71.634 160-160 160v0c-88.366 0-160-71.634-160-160s71.634-160 160-160v0zM1056 512c88.4 0 160-71.6 160-160 0-17.6 14.4-32 32-32s32 14.4 32 32c0 123.8-100.2 224-224 224h-168c5.2-20.4 8-42 8-64h160zM384 512c0 22 2.8 43.6 8 64h-168c-123.8 0-224-100.2-224-224 0-17.6 14.4-32 32-32s32 14.4 32 32c0 88.4 71.6 160 160 160h160z" />
<glyph unicode="&#xe910;" glyph-name="sparkles" d="M864 896c17.6 0 32-14.4 32-32v-96h96c17.6 0 32-14.4 32-32s-14.4-32-32-32h-96v-96c0-17.6-14.4-32-32-32s-32 14.4-32 32v96h-96c-17.6 0-32 14.4-32 32s14.4 32 32 32h96v96c0 17.6 14.4 32 32 32zM864 320c17.6 0 32-14.4 32-32v-96h96c17.6 0 32-14.4 32-32s-14.4-32-32-32h-96v-96c0-17.6-14.4-32-32-32s-32 14.4-32 32v96h-96c-17.6 0-32 14.4-32 32s14.4 32 32 32h96v96c0 17.6 14.4 32 32 32zM273.6 527.2l-165.2-76.4 165.2-76.2c13.8-6.4 24.8-17.4 31.2-31.2l76.2-165.2 76.2 165.2c6.4 13.8 17.4 24.8 31.2 31.2l165.2 76.2-165.2 76.2c-13.8 6.4-24.8 17.4-31.2 31.2l-76.2 165.2-76.2-165.2c-6.4-13.8-17.4-24.8-31.2-31.2zM246.8 316.4l-228.2 105.4c-11.4 5.2-18.6 16.6-18.6 29s7.2 23.8 18.6 29l228.2 105.4 105.2 228.2c5.2 11.4 16.6 18.6 29 18.6s23.8-7.2 29-18.6l105.4-228.2 228.2-105.2c11.4-5.2 18.6-16.6 18.6-29s-7.2-23.8-18.6-29l-228-105.6-105.4-228c-5.2-11.4-16.6-18.6-29-18.6s-23.8 7.2-29 18.6l-105.4 228z" />
<glyph unicode="&#xe911;" glyph-name="comments" horiz-adv-x="1280" d="M64 608c0 149.6 147.4 288 352 288s352-138.4 352-288-147.4-288-352-288c-30.6 0-61.2 3.8-92.6 10-7 1.4-14.2 0.4-20.4-2.8-12.2-6.2-24-12-36-17.4-56.8-25.8-120.4-46.2-183-52 29.8 38 53.6 79.4 75.2 119.8 6.6 12.2 4.6 27.2-5 37.2-54.2 56.8-90.2 119-90.2 193.2zM416 960c-229.8 0-416-157.8-416-352 0-88.4 39.6-160.2 92-220-23.4-42-48-81.2-79-115 0 0 0 0 0 0l-0.2-0.2c-13-14-16.4-34.2-8.8-51.6 7.6-17.8 24.8-29.2 44-29.2 86 0 173 26.6 245.4 59.4 9.8 4.4 19.2 9 28.6 13.6 30.6-5.6 61.8-9.2 94-9.2 229.8 0 416 157.8 416 352s-186.2 352.2-416 352.2zM894.8 639c188.4-13 321.2-145 321.2-287 0-74.2-36-136.4-90.2-193.2-9.6-10-11.6-25-5-37.2 21.8-40.4 45.4-81.6 75.2-119.8-62.6 6-126.4 26.4-183 52-12 5.4-23.8 11.2-36 17.4-6.4 3.2-13.6 4.2-20.4 2.8-31.2-6.2-61.8-10-92.6-10-136.4 0-247.2 61.4-306.2 146.6-22-6-44.6-10.4-67.6-13.6 67.8-116.6 209.6-197 373.8-197 32.2 0 63.4 3.6 94 9.2 9.2-4.6 18.8-9.2 28.6-13.6 72.4-33 159.4-59.6 245.4-59.6 19.2 0 36.4 11.4 44 29 7.6 17.4 4 37.8-8.8 51.6l-0.2 0.2s0 0 0 0c-31 34-55.6 73-79 115 52.4 59.8 92 131.6 92 220 0 188.8-175.6 343-396.4 351.6 5.6-20.8 9.4-42.4 11.2-64.6z" />
<glyph unicode="&#xe912;" glyph-name="ban" d="M805.4 109.4l-632 632c-68.2-78.6-109.4-181.2-109.4-293.4 0-247.4 200.6-448 448-448 112.2 0 214.8 41.2 293.4 109.4zM850.6 154.6c68.2 78.6 109.4 181.2 109.4 293.4 0 247.4-200.6 448-448 448-112.2 0-214.8-41.2-293.4-109.4l632-632zM0 448c0 282.77 229.23 512 512 512s512-229.23 512-512v0c0-282.77-229.23-512-512-512s-512 229.23-512 512v0z" />
<glyph unicode="&#xe913;" glyph-name="pen-paintbrush" horiz-adv-x="1152" d="M641 140c9.8-79 77.2-140 158.8-140h278.4c-42.4 0-75 23-94.4 49.8-19 26.2-28.4 60-25 93.4 0.6 5.4 0.8 11 0.8 16.6 0 81.6-61 149-140 158.8l53 53c87.8-30.2 151-113.6 151-211.8 0-7.8-0.4-15.6-1.2-23.2-3.6-35 20.4-72.8 55.6-72.8h9.6c35.4 0 64-28.6 64-64s-28.6-64-64-64h-288c-98.2 0-181.6 63.2-211.8 151l53.2 53.2zM267 512l-229.6 229.4c-50 50-50 131 0 181s131 50 181 0l229.6-229.4-45.2-45.2-229.6 229.4c-25 25-65.6 25-90.6 0s-25-65.6 0-90.6l229.6-229.4-45.2-45.2zM923.6 880.8c-18.8 18.8-49.2 18.8-67.8 0l-109.8-109.6 153.2-153.2 109.6 109.6c18.8 18.8 18.8 49.2 0 67.8l-85.2 85.4zM230.2 255.2c-15.2-15.2-26.2-33.8-32.2-54.4l-54.8-185.6 185.6 54.6c20.6 6 39.2 17.2 54.4 32.2l470.8 470.8-153.2 153.2-470.6-470.8zM810.4 926c43.8 43.8 114.6 43.8 158.4 0l85.2-85.2c43.8-43.8 43.8-114.6 0-158.4l-625.4-625.6c-22.8-22.8-50.8-39.4-81.6-48.4l-242-71.2c-11.2-3.4-23.4-0.2-31.6 8s-11.4 20.4-8 31.6l71.2 242c9 30.8 25.8 58.8 48.4 81.6l625.4 625.6z" />
<glyph unicode="&#xe914;" glyph-name="user-plus" horiz-adv-x="1280" d="M448 896c106.039 0 192-85.961 192-192s-85.961-192-192-192v0c-106.039 0-192 85.961-192 192s85.961 192 192 192v0zM448 448c141.385 0 256 114.615 256 256s-114.615 256-256 256v0c-141.385 0-256-114.615-256-256s114.615-256 256-256v0zM356.6 288h182.8c160 0 290-128.6 292.6-288h-768c2.4 159.4 132.4 288 292.6 288zM356.6 352c-197 0-356.6-159.6-356.6-356.6 0-32.8 26.6-59.4 59.4-59.4h777.2c32.8 0 59.4 26.6 59.4 59.4 0 197-159.6 356.6-356.6 356.6h-182.8zM1024 352c0-17.6 14.4-32 32-32s32 14.4 32 32v160h160c17.6 0 32 14.4 32 32s-14.4 32-32 32h-160v160c0 17.6-14.4 32-32 32s-32-14.4-32-32v-160h-160c-17.6 0-32-14.4-32-32s14.4-32 32-32h160v-160z" />
<glyph unicode="&#xe915;" glyph-name="share-nodes" horiz-adv-x="896" d="M896 736c0-88.4-71.6-160-160-160-45.8 0-87.2 19.2-116.2 50l-302-151c1.6-8.8 2.2-17.8 2.2-27s-0.8-18.2-2.2-27l302-151c29.2 30.8 70.4 50 116.2 50 88.4 0 160-71.6 160-160s-71.6-160-160-160-160 71.6-160 160c0 19.4 3.4 38 9.8 55.4l-291.4 145.6c-28.6-44-78-73-134.4-73-88.4 0-160 71.6-160 160s71.6 160 160 160c56.4 0 105.8-29 134.4-73l291.4 145.8c-6.4 17.2-9.8 35.8-9.8 55.4 0 88.4 71.6 160 160 160s160-71.6 160-160zM160 352c53.019 0 96 42.981 96 96s-42.981 96-96 96v0c-53.019 0-96-42.981-96-96s42.981-96 96-96v0zM832 736c0 53.019-42.981 96-96 96s-96-42.981-96-96v0c0-53.019 42.981-96 96-96s96 42.981 96 96v0zM736 64c53.019 0 96 42.981 96 96s-42.981 96-96 96v0c-53.019 0-96-42.981-96-96s42.981-96 96-96v0z" />
<glyph unicode="&#xe916;" glyph-name="globe" d="M512 0c33.4 0 80.8 28.8 123.8 114.6 19.8 39.6 36.4 87.4 48.2 141.4h-344c11.8-54 28.4-101.8 48.2-141.4 43-85.8 90.4-114.6 123.8-114.6zM328.6 320h366.8c5.6 40.4 8.6 83.4 8.6 128s-3 87.6-8.6 128h-366.8c-5.6-40.4-8.6-83.4-8.6-128s3-87.6 8.6-128zM340 640h344c-11.8 54-28.4 101.8-48.2 141.4-43 85.8-90.4 114.6-123.8 114.6s-80.8-28.8-123.8-114.6c-19.8-39.6-36.4-87.4-48.2-141.4zM760 576c5.2-41 8-83.8 8-128s-2.8-87-8-128h181.6c12 40.6 18.6 83.6 18.6 128s-6.4 87.4-18.6 128h-181.6zM917 640c-51.8 109-146.2 193.8-261.8 232.6 42-56.6 75.2-137.6 94.4-232.6h167.6zM274.8 640c19.2 95.2 52.4 176 94.4 232.6-115.8-38.8-210.4-123.6-262-232.6h167.4zM82.8 576c-12-40.6-18.6-83.6-18.6-128s6.4-87.4 18.6-128h181.6c-5.2 41-8 83.8-8 128s2.8 87 8 128h-181.6zM655 23.4c115.6 39 210 123.6 261.8 232.6h-167.6c-19.2-95.2-52.4-176-94.4-232.6zM369 23.4c-42 56.6-75 137.6-94.4 232.6h-167.4c51.8-109 146.2-193.8 261.8-232.6zM512-64c-282.77 0-512 229.23-512 512s229.23 512 512 512v0c282.77 0 512-229.23 512-512s-229.23-512-512-512v0z" />
<glyph unicode="&#xe917;" glyph-name="list-ul" d="M128 832c-35.346 0-64-28.654-64-64s28.654-64 64-64v0c35.346 0 64 28.654 64 64s-28.654 64-64 64v0zM352 800c-17.6 0-32-14.4-32-32s14.4-32 32-32h640c17.6 0 32 14.4 32 32s-14.4 32-32 32h-640zM352 480c-17.6 0-32-14.4-32-32s14.4-32 32-32h640c17.6 0 32 14.4 32 32s-14.4 32-32 32h-640zM352 160c-17.6 0-32-14.4-32-32s14.4-32 32-32h640c17.6 0 32 14.4 32 32s-14.4 32-32 32h-640zM192 448c0 35.346-28.654 64-64 64s-64-28.654-64-64v0c0-35.346 28.654-64 64-64s64 28.654 64 64v0zM128 192c-35.346 0-64-28.654-64-64s28.654-64 64-64v0c35.346 0 64 28.654 64 64s-28.654 64-64 64v0z" />
<glyph unicode="&#xe918;" glyph-name="rss" horiz-adv-x="896" d="M32 896c-17.6 0-32-14.4-32-32s14.4-32 32-32c441.8 0 800-358.2 800-800 0-17.6 14.4-32 32-32s32 14.4 32 32c0 477.2-386.8 864-864 864zM32 608c-17.6 0-32-14.4-32-32s14.4-32 32-32c282.8 0 512-229.2 512-512 0-17.6 14.4-32 32-32s32 14.4 32 32c0 318.2-257.8 576-576 576zM64 128c0 35.346 28.654 64 64 64s64-28.654 64-64v0c0-35.346-28.654-64-64-64s-64 28.654-64 64v0zM256 128c0 70.692-57.308 128-128 128s-128-57.308-128-128v0c0-70.692 57.308-128 128-128s128 57.308 128 128v0z" />
<glyph unicode="&#xe919;" glyph-name="caret-right" horiz-adv-x="512" d="M493.2 402.8c25 25 25 65.6 0 90.6l-256 256c-18.4 18.4-45.8 23.8-69.8 13.8s-39.6-33.2-39.6-59.2v-512c0-25.8 15.6-49.2 39.6-59.2s51.4-4.4 69.8 13.8l256 256z" />
<glyph unicode="&#xe91a;" glyph-name="caret-up" horiz-adv-x="640" d="M365.2 685.2c-25 25-65.6 25-90.6 0l-256-256c-18.4-18.4-23.8-45.8-13.8-69.8s33.2-39.6 59.2-39.6h512c25.8 0 49.2 15.6 59.2 39.6s4.4 51.4-13.8 69.8l-256 256z" />
<glyph unicode="&#xe91b;" glyph-name="chevron-down" d="M534.6 169.4c-12.4-12.4-32.8-12.4-45.2 0l-384 384c-12.4 12.4-12.4 32.8 0 45.2s32.8 12.4 45.2 0l361.4-361.4 361.4 361.4c12.4 12.4 32.8 12.4 45.2 0s12.4-32.8 0-45.2l-384-384z" />
<glyph unicode="&#xe91c;" glyph-name="chevron-left" horiz-adv-x="640" d="M41.4 425.4c-12.4 12.4-12.4 32.8 0 45.2l384 384c12.4 12.4 32.8 12.4 45.2 0s12.4-32.8 0-45.2l-361.4-361.4 361.4-361.4c12.4-12.4 12.4-32.8 0-45.2s-32.8-12.4-45.2 0l-384 384z" />
<glyph unicode="&#xe91d;" glyph-name="chevron-right" horiz-adv-x="640" d="M598.6 470.6c12.4-12.4 12.4-32.8 0-45.2l-384-384c-12.4-12.4-32.8-12.4-45.2 0s-12.4 32.8 0 45.2l361.4 361.4-361.4 361.4c-12.4 12.4-12.4 32.8 0 45.2s32.8 12.4 45.2 0l384-384z" />
<glyph unicode="&#xe91e;" glyph-name="chevron-up" d="M489.4 726.6c12.4 12.4 32.8 12.4 45.2 0l384-384c12.4-12.4 12.4-32.8 0-45.2s-32.8-12.4-45.2 0l-361.4 361.4-361.4-361.4c-12.4-12.4-32.8-12.4-45.2 0s-12.4 32.8 0 45.2l384 384z" />
<glyph unicode="&#xe91f;" glyph-name="magnifying-glass" d="M768 544c0 194.404-157.596 352-352 352s-352-157.596-352-352v0c0-194.404 157.596-352 352-352s352 157.596 352 352v0zM686.6 228c-72.6-62.4-167.2-100-270.6-100-229.8 0-416 186.2-416 416s186.2 416 416 416 416-186.2 416-416c0-103.4-37.6-198-100-270.6l282.6-282.8c12.4-12.4 12.4-32.8 0-45.2s-32.8-12.4-45.2 0l-282.8 282.6z" />
<glyph unicode="&#xe920;" glyph-name="gears" horiz-adv-x="1280" d="M292.4 878.6l-13.8-50.2c-2.8-10.4-10.8-18.8-21.2-22-29.2-9.2-55.8-24.8-78-45-8-7.4-19.2-10.2-29.8-7.4l-50.2 13.2c-4.4-6.2-8.6-12.6-12.6-19.2l-4.8-8.4c-3.6-6.6-7-13.2-10-20l36.6-37c7.6-7.8 10.8-18.8 8.4-29.4-3.4-14.6-5-29.6-5-45.2s1.6-30.6 4.8-45c2.4-10.6-0.8-21.6-8.4-29.4l-36.6-37.2c3-6.8 6.4-13.4 10-20l5-8.6c4-6.6 8.2-13 12.6-19.2l50.4 13.4c10.6 2.8 21.8 0 29.8-7.4 22.2-20.4 48.6-35.8 78-45 10.4-3.2 18.4-11.6 21.2-22l13.8-50.2c9-1 18.2-1.4 27.6-1.4s18.4 0.4 27.6 1.4l13.8 50.2c2.8 10.4 10.8 18.8 21.2 22 29.2 9.2 55.8 24.8 78 45 8 7.4 19.2 10.2 29.8 7.4l50.4-13.2c4.4 6 8.4 12.2 12.2 18.6l5.6 9.6c3.4 6.4 6.8 12.8 9.6 19.4l-36.6 37c-7.6 7.8-10.8 18.8-8.4 29.4 3.2 14.4 4.8 29.6 4.8 45.2s-1.6 30.6-4.8 45.2c-2.4 10.6 0.8 21.6 8.4 29.4l36.6 37c-3 6.6-6.2 13-9.6 19.4l-5.6 9.6c-3.8 6.4-8 12.6-12.2 18.6l-50.8-13.2c-10.6-2.8-21.8 0-29.8 7.4-22.2 20.4-48.6 35.8-78 45-10.4 3.2-18.4 11.6-21.2 22l-13.8 50.2c-9 1-18.2 1.4-27.6 1.4s-18.4-0.4-27.6-1.4zM261.6 939c19 3.2 38.6 5 58.4 5s39.4-1.8 58.2-5c12.2-2.2 22-11.2 25.4-23l15-54.4c26.2-10.2 50.2-24.2 71.8-41.4l54.6 14.2c12 3.2 24.6-1 32.6-10.4 11.2-13.4 21.4-27.6 30.4-42.6l0.4-0.6s0 0 0 0l5.8-10.2 0.4-0.6s0 0 0 0c8.2-15 15.4-30.8 21.4-47.2 4.2-11.6 1.4-24.6-7.2-33.4l-39.6-40.2c2-13.6 3.2-27.4 3.2-41.4s-1-27.8-3.2-41.4l39.6-40.2c8.6-8.8 11.6-21.8 7.2-33.4-6-16.4-13.2-32-21.4-47.2l-0.4-0.6s0 0 0 0l-6-10.2-0.4-0.6s0 0 0 0c-9-15-19.2-29.2-30.4-42.6-8-9.4-20.6-13.6-32.6-10.4l-54.6 14.2c-21.4-17.2-45.6-31.2-71.6-41.4l-15-54c-3.2-12-13.2-21-25.4-23-19-3.4-38.4-5-58.2-5s-39.4 1.8-58.4 5c-12.2 2.2-22 11.2-25.4 23l-15 54.4c-26.2 10.2-50.2 24.2-71.6 41.4l-54.6-14.2c-12-3.2-24.6 1-32.6 10.4-11.4 13.6-21.8 28-30.8 43.2l-0.2 0.4s0 0 0 0l-5.2 9-0.2 0.4s0 0 0 0c-8.4 15.2-15.8 31.2-21.8 47.8-4.2 11.6-1.4 24.6 7.2 33.4l39.6 40.2c-2 13.8-3 27.6-3 41.6s1 27.8 3.2 41.4l-39.8 40.2c-8.6 8.8-11.6 21.8-7.2 33.4 6 16.6 13.4 32.6 21.8 47.8l0.2 0.4s0 0 0 0l5.2 9 0.2 0.4s0 0 0 0c9.2 15.4 19.6 29.8 31 43.4 8 9.4 20.6 13.6 32.6 10.4l54.6-14.2c21.4 17.2 45.6 31.2 71.6 41.4l15 54.4c3.2 12 13.2 21 25.4 23zM208 608c0 61.856 50.144 112 112 112s112-50.144 112-112v0c0-61.856-50.144-112-112-112s-112 50.144-112 112v0zM320 560c26.51 0 48 21.49 48 48s-21.49 48-48 48v0c-26.51 0-48-21.49-48-48s21.49-48 48-48v0zM657.4 228.4l50.2-13.8c10.4-2.8 18.8-10.8 22-21.2 9.2-29.2 24.8-55.8 45-78 7.4-8 10.2-19.2 7.4-29.8l-13.2-50.4c6.2-4.4 12.6-8.6 19.2-12.6l8.4-4.8c6.6-3.6 13.2-7 20-10l37 36.6c7.8 7.6 18.8 10.8 29.4 8.4 14.4-3.2 29.6-4.8 45-4.8s30.6 1.6 45 4.8c10.6 2.4 21.6-0.8 29.4-8.4l37-36.6c6.8 3 13.4 6.4 20 10l8.6 5c6.6 4 13 8.2 19.2 12.6l-13 50.4c-2.8 10.6 0 21.8 7.4 29.8 20.4 22.2 35.8 48.6 45 78 3.2 10.4 11.6 18.4 22 21.2l50.2 13.8c1 9 1.4 18.2 1.4 27.6s-0.4 18.4-1.4 27.6l-50.2 13.8c-10.4 2.8-18.8 10.8-22 21.2-9.2 29.4-24.8 55.8-45 78-7.4 8-10.2 19.2-7.4 29.8l13.2 50.4c-6 4.4-12.2 8.4-18.6 12.2l-9.6 5.6c-6.4 3.4-12.8 6.8-19.4 9.6l-37-36.6c-7.8-7.6-18.8-10.8-29.4-8.4-14.4 3.2-29.6 4.8-45.2 4.8s-30.6-1.6-45.2-4.8c-10.6-2.4-21.6 0.8-29.4 8.4l-37 36.6c-6.6-3-13-6.2-19.4-9.6l-9.6-5.6c-6.4-3.8-12.6-8-18.6-12.2l13.2-50.4c2.8-10.6 0-21.8-7.4-29.8-20.4-22.2-35.8-48.6-45-78-3.2-10.4-11.6-18.4-22-21.2l-50.2-13.8c-1-9-1.4-18.2-1.4-27.6s0.4-18.4 1.4-27.6zM597 197.6c-3.4 19-5 38.4-5 58.4s1.8 39.4 5 58.2c2.2 12.2 11.2 22 23 25.4l54.4 15c10.2 26.2 24.2 50.2 41.4 71.8l-14.2 54.6c-3.2 12 1 24.6 10.4 32.6 13.4 11.2 27.6 21.4 42.6 30.4l0.6 0.4s0 0 0 0l10.2 5.8 0.6 0.4s0 0 0 0c15 8.2 30.8 15.4 47.2 21.4 11.6 4.2 24.6 1.4 33.4-7.2l40.2-39.6c13.6 2 27.4 3.2 41.4 3.2s27.8-1 41.4-3.2l40.2 39.6c8.8 8.6 21.8 11.6 33.4 7.2 16.4-6 32-13.2 47.2-21.4l0.6-0.4s0 0 0 0l10.2-6 0.6-0.4s0 0 0 0c15-9 29.2-19.2 42.6-30.4 9.4-8 13.4-20.6 10.4-32.6l-14.2-54.6c17.2-21.4 31.2-45.6 41.4-71.6l54.4-15c12-3.2 21-13.2 23-25.4 3.4-19 5-38.4 5-58.2s-1.8-39.4-5-58.4c-2.2-12.2-11.2-22-23-25.4l-54.4-15c-10.2-26.2-24.2-50.2-41.4-71.6l14.2-54.6c3.2-12-1-24.6-10.4-32.6-13.6-11.4-28-21.8-43.2-30.8l-0.4-0.2s0 0 0 0l-9-5.2-0.4-0.2s0 0 0 0c-15.2-8.4-31.2-15.8-47.8-21.8-11.6-4.2-24.6-1.4-33.4 7.2l-40.2 39.6c-13.6-2-27.4-3.2-41.4-3.2s-27.8 1-41.4 3.2l-40.2-39.6c-8.8-8.6-21.8-11.6-33.4-7.2-16.6 6-32.6 13.4-47.8 21.8l-0.4 0.2s0 0 0 0l-9 5.2-0.4 0.2s0 0 0 0c-15.2 9.2-29.8 19.6-43.2 30.8-9.4 8-13.6 20.6-10.4 32.6l14.2 54.6c-17.2 21.4-31.2 45.6-41.4 71.6l-55.2 15.2c-12 3.2-21 13.2-23 25.4zM928 144c-61.856 0-112 50.144-112 112s50.144 112 112 112v0c61.856 0 112-50.144 112-112s-50.144-112-112-112v0zM976 256c0 26.51-21.49 48-48 48s-48-21.49-48-48v0c0-26.51 21.49-48 48-48s48 21.49 48 48v0z" />
<glyph unicode="&#xe921;" glyph-name="lock-open" horiz-adv-x="1152" d="M704 704c0 106 86 192 192 192s192-86 192-192v-160c0-17.6 14.4-32 32-32s32 14.4 32 32v160c0 141.4-114.6 256-256 256s-256-114.6-256-256v-128h-480c-88.4 0-160-71.6-160-160v-320c0-88.4 71.6-160 160-160h576c88.4 0 160 71.6 160 160v320c0 88.4-71.6 160-160 160h-32v128zM672 512h64c53 0 96-43 96-96v-320c0-53-43-96-96-96h-576c-53 0-96 43-96 96v320c0 53 43 96 96 96h512z" />
<glyph unicode="&#xe922;" glyph-name="lock" horiz-adv-x="896" d="M256 704v-128h384v128c0 106-86 192-192 192s-192-86-192-192zM192 576v128c0 141.4 114.6 256 256 256s256-114.6 256-256v-128h32c88.4 0 160-71.6 160-160v-320c0-88.4-71.6-160-160-160h-576c-88.4 0-160 71.6-160 160v320c0 88.4 71.6 160 160 160h32zM64 416v-320c0-53 43-96 96-96h576c53 0 96 43 96 96v320c0 53-43 96-96 96h-576c-53 0-96-43-96-96z" />
<glyph unicode="&#xe923;" glyph-name="align-left" horiz-adv-x="896" d="M32 864c-17.6 0-32-14.4-32-32s14.4-32 32-32h512c17.6 0 32 14.4 32 32s-14.4 32-32 32h-512zM32 608c-17.6 0-32-14.4-32-32s14.4-32 32-32h832c17.6 0 32 14.4 32 32s-14.4 32-32 32h-832zM0 320c0-17.6 14.4-32 32-32h512c17.6 0 32 14.4 32 32s-14.4 32-32 32h-512c-17.6 0-32-14.4-32-32zM32 96c-17.6 0-32-14.4-32-32s14.4-32 32-32h832c17.6 0 32 14.4 32 32s-14.4 32-32 32h-832z" />
<glyph unicode="&#xe924;" glyph-name="file-pen" horiz-adv-x="1152" d="M128 0h389.2l-2.2-9c-4.6-18.4-3.6-37.6 2.6-55h-389.6c-70.6 0-128 57.4-128 128v768c0 70.6 57.4 128 128 128h312.2c25.4 0 49.8-10.2 67.8-28.2l231.8-231.6c18-18 28.2-42.4 28.2-67.8v-243.6l-64-64v251.2h-224c-53 0-96 43-96 96v224h-256c-35.4 0-64-28.6-64-64v-768c0-35.4 28.6-64 64-64zM703 640c-1.4 5.6-4.2 10.8-8.4 14.8l-231.8 231.8c-4.2 4.2-9.2 7-14.8 8.4v-223c0-17.6 14.4-32 32-32h223zM1037 432c-12.4 12.4-32.8 12.4-45.2 0l-49.6-49.6 79.8-79.8 49.6 49.6c12.4 12.4 12.4 32.8 0 45.2l-34.4 34.6zM684.8 125c-4.2-4.2-7-9.2-8.4-14.8l-24.4-98 97.8 24.4c5.6 1.4 10.8 4.4 14.8 8.4l212.4 212.4-79.8 79.8-212.4-212.2zM946.6 477.2c37.4 37.4 98.2 37.4 135.8 0l34.6-34.6c37.4-37.4 37.4-98.2 0-135.8l-307-307c-12.4-12.4-27.8-21-44.6-25.2l-149.6-37.4c-11-2.8-22.4 0.4-30.4 8.4s-11.2 19.4-8.4 30.4l37.4 149.6c4.2 16.8 13 32.4 25.2 44.6l307 307z" />
<glyph unicode="&#xe925;" glyph-name="thumbtack" horiz-adv-x="768" d="M239.8 891l-24.2-313.8c-1.4-19.4-11.8-37.2-27.8-48-54-36.6-94.6-92.4-111.2-159.2l-12.6-50h288v192c0 17.6 14.4 32 32 32s32-14.4 32-32v-192h288l-12.4 50c-16.6 66.8-57.2 122.6-111.2 159.2-16.2 11-26.4 28.6-27.8 48l-24.4 313.8c-0.2 1.6-0.2 3.2-0.2 5h-288c0-1.6 0-3.2-0.2-5zM352 256h-288c-19.8 0-38.4 9-50.4 24.6s-16.4 35.8-11.6 55l12.4 50c20.6 82.6 70.8 151.4 137.4 196.6l19.2 249.8 5 64h-48c-5.8 0-11.2 1.6-15.8 4.2-9.8 5.6-16.2 16-16.2 27.8 0 17.6 14.4 32 32 32h512c17.6 0 32-14.4 32-32 0-11.8-6.4-22.2-16.2-27.8-4.6-2.6-10-4.2-15.8-4.2h-48l5-64 19.2-249.8c66.6-45.2 116.8-114.2 137.4-196.6l12.4-50c4.8-19.2 0.4-39.4-11.6-55s-30.8-24.6-50.4-24.6h-288v-288c0-17.6-14.4-32-32-32s-32 14.4-32 32v288z" />
<glyph unicode="&#xe926;" glyph-name="minimize" d="M1014.6 905.4l-216-216 94.2-94.2c12-12 16.8-29.2 12.6-45.6l-0.4-1.2c-5.4-21.4-24.6-36.4-46.6-36.4h-234.4c-26.6 0-48 21.4-48 48v234.6c0 22 15 41.2 36.4 46.6l1.2 0.4c16.4 4 33.6-0.8 45.6-12.6l94.2-94.2 216 216c12.4 12.4 32.8 12.4 45.2 0s12.4-32.8 0-45.2zM9.4 905.4c-12.4 12.4-12.4 32.8 0 45.2s32.8 12.4 45.2 0l216-216 94.2 94.2c12 12 29.2 16.8 45.6 12.6l1.2-0.4c21.4-5.2 36.4-24.4 36.4-46.4v-234.6c0-26.6-21.4-48-48-48h-234.6c-22 0-41.2 15-46.6 36.4l-0.4 1.2c-4 16.4 0.8 33.6 12.6 45.6l94.2 94.2-215.8 216zM1014.6-54.6c-12.4-12.4-32.8-12.4-45.2 0l-216 216-94.2-94.2c-12-12-29.2-16.8-45.6-12.6l-1.2 0.4c-21.4 5.4-36.4 24.6-36.4 46.6v234.4c0 26.6 21.4 48 48 48h234.6c22 0 41.2-15 46.6-36.4l0.4-1.2c4-16.4-0.8-33.6-12.6-45.6l-94.2-94.2 216-216c12.4-12.4 12.4-32.8 0-45.2zM9.4-9.4l216 216-94.2 94.2c-12 12-16.8 29.2-12.6 45.6l0.4 1.2c5.2 21.4 24.4 36.4 46.4 36.4h234.6c26.6 0 48-21.4 48-48v-234.6c0-22-15-41.2-36.4-46.6l-1.2-0.4c-16.4-4-33.6 0.8-45.6 12.6l-94.2 94.2-216-216c-12.4-12.4-32.8-12.4-45.2 0s-12.4 32.8 0 45.2zM821.4 576l-181.4 181.4v-181.4h181.4zM384 757.4l-181.4-181.4h181.4v181.4zM821.4 320h-181.4v-181.4l181.4 181.4zM384 138.6v181.4h-181.4l181.4-181.4z" />
<glyph unicode="&#xe927;" glyph-name="maximize" d="M100.4 567l1.2-0.4c16.4-4 33.6 0.8 45.6 12.6l94.2 94.2 225.4-225.4-225.4-225.4-94.2 94.2c-12 12-29.2 16.8-45.6 12.6l-1.2-0.4c-21.4-5.2-36.4-24.4-36.4-46.4v-234.6c0-26.6 21.4-48 48-48h234.6c22 0 41.2 15 46.6 36.4l0.4 1.2c4 16.4-0.8 33.6-12.6 45.6l-94.2 94.2 225.2 225.4 225.4-225.4-94.2-94.2c-12-12-16.8-29.2-12.6-45.6l0.4-1.2c5.4-21.4 24.6-36.4 46.6-36.4h234.4c26.6 0 48 21.4 48 48v234.6c0 22-15 41.2-36.4 46.6l-1.2 0.4c-16.4 4-33.6-0.8-45.6-12.6l-94.2-94.2-225.4 225.2 225.4 225.4 94.2-94.2c12-12 29.2-16.8 45.6-12.6l1.2 0.4c21.4 5.4 36.4 24.6 36.4 46.6v234.4c0 26.6-21.4 48-48 48h-234.6c-22 0-41.2-15-46.6-36.4l-0.4-1.2c-4-16.4 0.8-33.6 12.6-45.6l94.2-94.2-225.2-225.4-225.4 225.4 94.2 94.2c12 12 16.8 29.2 12.6 45.6l-0.4 1.2c-5.2 21.4-24.4 36.4-46.4 36.4h-234.6c-26.6 0-48-21.4-48-48v-234.6c0-22 15-41.2 36.4-46.6zM128 650.6v181.4h181.4l-181.4-181.4zM309.4 64h-181.4v181.4l181.4-181.4zM896 650.6l-181.4 181.4h181.4v-181.4zM714.6 64l181.4 181.4v-181.4h-181.4z" />
<glyph unicode="&#xe928;" glyph-name="eye" horiz-adv-x="1152" d="M234.4 688c86.2 80 200.8 144 341.6 144s255.4-64 341.6-144c86.2-80 143.8-176 170.4-240-26.6-64-84.2-160-170.4-240s-200.8-144-341.6-144-255.4 64-341.6 144c-86.2 80-143.8 176-170.4 240 26.6 64 84.2 160 170.4 240zM576 896c-161.6 0-291-73.6-385.2-161.2-93.6-86.8-156.2-190.8-185.8-262.2-6.6-15.8-6.6-33.4 0-49.2 29.6-71.4 92.2-175.4 185.8-262.2 94.2-87.6 223.6-161.2 385.2-161.2s291 73.6 385.2 161.2c93.6 87 156.2 190.8 186 262.2 6.6 15.8 6.6 33.4 0 49.2-29.8 71.4-92.4 175.4-186 262.2-94.2 87.6-223.6 161.2-385.2 161.2zM384 448c0 106.039 85.961 192 192 192s192-85.961 192-192v0c0-106.039-85.961-192-192-192s-192 85.961-192 192v0zM832 448c0 141.385-114.615 256-256 256s-256-114.615-256-256v0c0-141.385 114.615-256 256-256s256 114.615 256 256v0z" />
<glyph unicode="&#xe929;" glyph-name="alarm-clock" d="M184.4 960c-101.8 0-184.4-82.6-184.4-184.4 0-36.4 10.6-70.4 28.8-99 9.4-15 29.2-19.2 44.2-9.8s19.2 29.2 9.8 44.2c-11.8 18.6-18.8 40.8-18.8 64.6 0 66.6 53.8 120.4 120.4 120.4 31.6 0 60.4-12.2 81.8-32.2 13-12 33.2-11.2 45.2 1.6s11.2 33.2-1.6 45.2c-33 30.8-77 49.4-125.4 49.4zM714.2 910.8c-13-12-13.8-32.2-1.6-45.2s32.2-13.8 45.2-1.6c21.4 19.8 50.2 32 81.8 32 66.4 0 120.4-53.8 120.4-120.4 0-23.8-6.8-46-18.8-64.6-9.4-15-5.2-34.6 9.8-44.2s34.6-5.2 44.2 9.8c18.2 28.6 28.8 62.6 28.8 99 0 101.8-82.6 184.4-184.4 184.4-48.4 0-92.6-18.6-125.4-49.2zM118.6-54.6l100 100c78.6-68.2 181.2-109.4 293.4-109.4s214.8 41.2 293.4 109.4l100-100c12.4-12.4 32.8-12.4 45.2 0s12.4 32.8 0 45.2l-100 100c68.2 78.6 109.4 181.2 109.4 293.4 0 247.4-200.6 448-448 448s-448-200.6-448-448c0-112.2 41.2-214.8 109.4-293.4l-100-100c-12.4-12.4-12.4-32.8 0-45.2s32.8-12.4 45.2 0zM512 768c212.077 0 384-171.923 384-384s-171.923-384-384-384v0c-212.077 0-384 171.923-384 384s171.923 384 384 384v0zM544 608c0 17.6-14.4 32-32 32s-32-14.4-32-32v-256c0-10 4.8-19.6 12.8-25.6l128-96c14.2-10.6 34.2-7.8 44.8 6.4s7.8 34.2-6.4 44.8l-115.2 86.4v240z" />
<glyph unicode="&#xe92a;" glyph-name="at" d="M512 896c-247.4 0-448-200.6-448-448s200.6-448 448-448c17.6 0 32-14.4 32-32s-14.4-32-32-32c-282.8 0-512 229.2-512 512s229.2 512 512 512 512-229.2 512-512v-48c0-97.2-78.8-176-176-176-66.8 0-125 37.4-154.8 92.2-40.8-56-106.8-92.2-181.2-92.2-123.8 0-224 100.2-224 224s100.2 224 224 224c62.6 0 119.4-25.8 160-67.2v3.2c0 17.6 14.4 32 32 32s32-14.4 32-32v-208c0-61.8 50.2-112 112-112s112 50.2 112 112v48c0 247.4-200.6 448-448 448zM672 448c0 88.366-71.634 160-160 160s-160-71.634-160-160v0c0-88.366 71.634-160 160-160s160 71.634 160 160v0z" />
<glyph unicode="&#xe92b;" glyph-name="bell" horiz-adv-x="896" d="M416 928c0 17.6 14.4 32 32 32s32-14.4 32-32v-33.6c161.8-16 288-152.4 288-318.4v-58.2c0-87.4 34.8-171.2 96.6-233.2l5.6-5.6c16.6-16.6 26-39.2 26-62.6 0-49-39.6-88.6-88.6-88.6l-719 0.2c-49 0-88.6 39.6-88.6 88.6 0 23.4 9.4 46 26 62.6l5.6 5.6c61.6 61.8 96.4 145.6 96.4 233v58.2c0 166 126.2 302.4 288 318.4v33.6zM448 832c-141.4 0-256-114.6-256-256v-58.2c0-104.4-41.4-204.6-115.4-278.4l-5.4-5.4c-4.6-4.6-7.2-10.8-7.2-17.4 0-13.6 11-24.6 24.6-24.6h718.8c13.6 0 24.6 11 24.6 24.6 0 6.6-2.6 12.8-7.2 17.4l-5.6 5.6c-73.8 73.8-115.4 174-115.4 278.4v58.2c0 141.4-114.6 256-256 256zM387.6 42.6c8.8-24.8 32.6-42.6 60.4-42.6s51.6 17.8 60.4 42.6c5.8 16.6 24.2 25.4 40.8 19.6s25.4-24.2 19.6-40.8c-17.6-49.8-65-85.4-120.8-85.4s-103.2 35.6-120.8 85.4c-5.8 16.6 2.8 35 19.6 40.8s35-2.8 40.8-19.6z" />
<glyph unicode="&#xe92c;" glyph-name="star" horiz-adv-x="1152" d="M453 622.4l122.8 253 122.8-253c9.2-19 27.2-32.2 48.2-35.4l274.8-40.6-199.6-197.6c-14.8-14.6-21.6-35.6-18-56.2l47-279-245 131c-18.8 10-41.4 10-60.4 0l-245.2-131 47 279c3.4 20.6-3.2 41.4-18 56.2l-199.4 197.6 274.8 40.6c21 3 39 16.4 48.2 35.4zM849.8-58.2c16.2-8.6 35.8-7.4 50.6 3.4s22.4 29 19.4 47l-52.6 311 222.4 220.4c13 12.8 17.4 31.8 11.8 49s-20.6 29.8-38.6 32.6l-306.6 45.2-137.2 282.6c-8 16.6-24.8 27-43.2 27s-35.2-10.4-43.2-27l-137.2-282.6-306.4-45.4c-18-2.6-33-15.2-38.6-32.6s-1-36.2 11.8-49l222.2-220.2-52.4-311c-3-18 4.4-36.2 19.4-47s34.6-12 50.6-3.4l274 146.4 274-146.4z" />
<glyph unicode="&#xe92d;" glyph-name="check" horiz-adv-x="896" d="M886.6 758.6c12.4-12.4 12.4-32.8 0-45.2l-544-544c-12.4-12.4-32.8-12.4-45.2 0l-288 288c-12.4 12.4-12.4 32.8 0 45.2s32.8 12.4 45.2 0l265.4-265.4 521.4 521.4c12.4 12.4 32.8 12.4 45.2 0z" />
<glyph unicode="&#xe92e;" glyph-name="circle-info" d="M512 896c247.424 0 448-200.576 448-448s-200.576-448-448-448v0c-247.424 0-448 200.576-448 448s200.576 448 448 448v0zM512-64c282.77 0 512 229.23 512 512s-229.23 512-512 512v0c-282.77 0-512-229.23-512-512s229.23-512 512-512v0zM416 256c-17.6 0-32-14.4-32-32s14.4-32 32-32h192c17.6 0 32 14.4 32 32s-14.4 32-32 32h-64v224c0 17.6-14.4 32-32 32h-80c-17.6 0-32-14.4-32-32s14.4-32 32-32h48v-192h-64zM512 592c26.51 0 48 21.49 48 48s-21.49 48-48 48v0c-26.51 0-48-21.49-48-48s21.49-48 48-48v0z" />
<glyph unicode="&#xe92f;" glyph-name="circle-pause" d="M960 448c0 247.424-200.576 448-448 448s-448-200.576-448-448v0c0-247.424 200.576-448 448-448s448 200.576 448 448v0zM0 448c0 282.77 229.23 512 512 512s512-229.23 512-512v0c0-282.77-229.23-512-512-512s-512 229.23-512 512v0zM448 608v-320c0-17.6-14.4-32-32-32s-32 14.4-32 32v320c0 17.6 14.4 32 32 32s32-14.4 32-32zM640 608v-320c0-17.6-14.4-32-32-32s-32 14.4-32 32v320c0 17.6 14.4 32 32 32s32-14.4 32-32z" />
<glyph unicode="&#xe930;" glyph-name="circle-play" d="M512 896c247.424 0 448-200.576 448-448s-200.576-448-448-448v0c-247.424 0-448 200.576-448 448s200.576 448 448 448v0zM512-64c282.77 0 512 229.23 512 512s-229.23 512-512 512v0c-282.77 0-512-229.23-512-512s229.23-512 512-512v0zM657.4 448l-241.4-147.4v295l241.4-147.6zM425 665c-14.8 9-33.4 9.4-48.6 1s-24.6-24.6-24.6-41.8v-352c0-17.4 9.4-33.4 24.6-41.8s33.6-8.2 48.6 1l288 176c14.2 8.8 23 24.2 23 41s-8.8 32.2-23 41l-288 176z" />
<glyph unicode="&#xe931;" glyph-name="circle-plus" d="M512 896c247.424 0 448-200.576 448-448s-200.576-448-448-448v0c-247.424 0-448 200.576-448 448s200.576 448 448 448v0zM512-64c282.77 0 512 229.23 512 512s-229.23 512-512 512v0c-282.77 0-512-229.23-512-512s229.23-512 512-512v0zM480 256c0-17.6 14.4-32 32-32s32 14.4 32 32v160h160c17.6 0 32 14.4 32 32s-14.4 32-32 32h-160v160c0 17.6-14.4 32-32 32s-32-14.4-32-32v-160h-160c-17.6 0-32-14.4-32-32s14.4-32 32-32h160v-160z" />
<glyph unicode="&#xe932;" glyph-name="circle-question" d="M960 448c0 247.424-200.576 448-448 448s-448-200.576-448-448v0c0-247.424 200.576-448 448-448s448 200.576 448 448v0zM0 448c0 282.77 229.23 512 512 512s512-229.23 512-512v0c0-282.77-229.23-512-512-512s-512 229.23-512 512v0zM337.4 620.4c13 49.2 57.4 83.6 108.4 83.6h114.2c71 0 128-58 128-128.6 0-48-26.8-92.4-69.8-114.4l-74.2-37.6v-39.4c0-17.6-14.4-32-32-32s-32 14.4-32 32v59c0 12 6.8 23 17.4 28.6l91.6 46.8c21.4 10.8 35 33.2 35 57.4 0 35.6-28.8 64.6-64 64.6h-114.2c-21.8 0-41-14.8-46.4-35.8l-0.4-1.4c-4.4-17-22-27.4-39-22.8s-27.4 22-22.8 39l0.4 1.4zM464 256c0 26.51 21.49 48 48 48s48-21.49 48-48v0c0-26.51-21.49-48-48-48s-48 21.49-48 48v0z" />
<glyph unicode="&#xe933;" glyph-name="copy" horiz-adv-x="896" d="M768 256h-320c-35.4 0-64 28.6-64 64v512c0 35.4 28.6 64 64 64h216.2c8.4 0 16.6-3.4 22.6-9.4l135.8-135.8c6-6 9.4-14.2 9.4-22.6v-408.2c0-35.4-28.6-64-64-64zM867.8 796.2l-135.6 135.6c-18 18-42.4 28.2-67.8 28.2h-216.4c-70.6 0-128-57.4-128-128v-512c0-70.6 57.4-128 128-128h320c70.6 0 128 57.4 128 128v408.2c0 25.4-10.2 49.8-28.2 67.8zM128 704c-70.6 0-128-57.4-128-128v-512c0-70.6 57.4-128 128-128h320c70.6 0 128 57.4 128 128v64h-64v-64c0-35.4-28.6-64-64-64h-320c-35.4 0-64 28.6-64 64v512c0 35.4 28.6 64 64 64h128v64h-128z" />
<glyph unicode="&#xe934;" glyph-name="download" d="M544 928c0 17.6-14.4 32-32 32s-32-14.4-32-32v-626.8l-201.4 201.4c-12.4 12.4-32.8 12.4-45.2 0s-12.4-32.8 0-45.2l256-256c12.4-12.4 32.8-12.4 45.2 0l256 256c12.4 12.4 12.4 32.8 0 45.2s-32.8 12.4-45.2 0l-201.4-201.4v626.8zM280.2 320h-152.2c-70.6 0-128-57.4-128-128v-128c0-70.6 57.4-128 128-128h768c70.6 0 128 57.4 128 128v128c0 70.6-57.4 128-128 128h-152.2l-64-64h216.2c35.4 0 64-28.6 64-64v-128c0-35.4-28.6-64-64-64h-768c-35.4 0-64 28.6-64 64v128c0 35.4 28.6 64 64 64h216.2l-64 64zM864 128c0 26.51-21.49 48-48 48s-48-21.49-48-48v0c0-26.51 21.49-48 48-48s48 21.49 48 48v0z" />
<glyph unicode="&#xe935;" glyph-name="envelope" d="M128 768c-35.4 0-64-28.6-64-64v-79.8l391.2-286.8c33.8-24.8 79.8-24.8 113.6 0l391.2 286.8v79.8c0 35.4-28.6 64-64 64h-768zM64 544.8v-352.8c0-35.4 28.6-64 64-64h768c35.4 0 64 28.6 64 64v352.8l-353.4-259c-56.4-41.2-133-41.2-189.2 0l-353.4 259zM0 704c0 70.6 57.4 128 128 128h768c70.6 0 128-57.4 128-128v-512c0-70.6-57.4-128-128-128h-768c-70.6 0-128 57.4-128 128v512z" />
<glyph unicode="&#xe936;" glyph-name="floppy-disk" horiz-adv-x="896" d="M64 768c0 35.4 28.6 64 64 64v-192c0-35.4 28.6-64 64-64h384c35.4 0 64 28.6 64 64v188.4c9-3.2 17.4-8.4 24.2-15.2l149-149c12-12 18.8-28.2 18.8-45.2v-491c0-35.4-28.6-64-64-64h-640c-35.4 0-64 28.6-64 64v640zM192 832h384v-192h-384v192zM0 768v-640c0-70.6 57.4-128 128-128h640c70.6 0 128 57.4 128 128v491c0 34-13.4 66.6-37.4 90.6l-149.2 149c-24 24-56.6 37.4-90.6 37.4h-490.8c-70.6 0-128-57.4-128-128zM544 320c0-53.019-42.981-96-96-96s-96 42.981-96 96v0c0 53.019 42.981 96 96 96s96-42.981 96-96v0zM448 480c-88.366 0-160-71.634-160-160s71.634-160 160-160v0c88.366 0 160 71.634 160 160s-71.634 160-160 160v0z" />
<glyph unicode="&#xe937;" glyph-name="trash-can" horiz-adv-x="896" d="M328.4 881l-30.6-49h300.6l-30.8 49c-5.8 9.4-16.2 15-27.2 15h-185c-11 0-21.2-5.6-27.2-15zM622 914.8l51.8-82.8h190.2c17.6 0 32-14.4 32-32s-14.4-32-32-32h-32v-672c0-88.4-71.6-160-160-160h-448c-88.4 0-160 71.6-160 160v672h-32c-17.6 0-32 14.4-32 32s14.4 32 32 32h190.2l51.8 82.8c17.6 28.2 48.4 45.2 81.4 45.2h185c33.2 0 63.8-17 81.4-45.2zM128 768v-672c0-53 43-96 96-96h448c53 0 96 43 96 96v672h-640zM288 608v-448c0-17.6-14.4-32-32-32s-32 14.4-32 32v448c0 17.6 14.4 32 32 32s32-14.4 32-32zM480 608v-448c0-17.6-14.4-32-32-32s-32 14.4-32 32v448c0 17.6 14.4 32 32 32s32-14.4 32-32zM672 608v-448c0-17.6-14.4-32-32-32s-32 14.4-32 32v448c0 17.6 14.4 32 32 32s32-14.4 32-32z" />
<glyph unicode="&#xe938;" glyph-name="triangle-exclamation" d="M69 119.2c-3.2-5.6-5-12-5-18.6 0-20.4 16.4-36.8 36.8-36.8h822.4c20.4 0 36.8 16.4 36.8 36.8 0 6.6-1.8 12.8-5 18.6l-402 689.2c-8.6 14.6-24.2 23.6-41 23.6s-32.4-9-41-23.6l-402-689.2zM13.8 151.6l402 689.2c20 34.2 56.6 55.2 96.2 55.2s76.2-21 96.2-55.2l402-689.2c9-15.4 13.8-33 13.8-50.8 0-55.6-45.2-100.8-100.8-100.8h-822.4c-55.6 0-100.8 45.2-100.8 100.8 0 17.8 4.8 35.4 13.8 50.8zM512 640c17.6 0 32-14.4 32-32v-256c0-17.6-14.4-32-32-32s-32 14.4-32 32v256c0 17.6 14.4 32 32 32zM464 192c0 26.51 21.49 48 48 48s48-21.49 48-48v0c0-26.51-21.49-48-48-48s-48 21.49-48 48v0z" />
<glyph unicode="&#xe939;" glyph-name="upload" d="M544 850.8v-626.8c0-17.6-14.4-32-32-32s-32 14.4-32 32v626.8l-201.4-201.4c-12.4-12.4-32.8-12.4-45.2 0s-12.4 32.8 0 45.2l256 256c12.4 12.4 32.8 12.4 45.2 0l256-256c12.4-12.4 12.4-32.8 0-45.2s-32.8-12.4-45.2 0l-201.4 201.4zM416 256h-288c-35.4 0-64-28.6-64-64v-128c0-35.4 28.6-64 64-64h768c35.4 0 64 28.6 64 64v128c0 35.4-28.6 64-64 64h-288v64h288c70.6 0 128-57.4 128-128v-128c0-70.6-57.4-128-128-128h-768c-70.6 0-128 57.4-128 128v128c0 70.6 57.4 128 128 128h288v-64zM768 128c0 26.51 21.49 48 48 48s48-21.49 48-48v0c0-26.51-21.49-48-48-48s-48 21.49-48 48v0z" />
<glyph unicode="&#xe93a;" glyph-name="xmark" horiz-adv-x="768" d="M649 137.8c12.4-12.4 32.8-12.4 45.2 0s12.4 32.8 0 45.2l-265 265 265 265c12.4 12.4 12.4 32.8 0 45.2s-32.8 12.4-45.2 0l-265-265-264.8 265c-12.4 12.4-32.8 12.4-45.2 0s-12.4-32.8 0-45.2l264.8-265-265-265c-12.4-12.4-12.4-32.8 0-45.2s32.8-12.4 45.2 0l265 265 265-265z" />
<glyph unicode="&#xe93b;" glyph-name="moon" horiz-adv-x="768" d="M381.2 826.4c-77.6-75.6-125.8-181.4-125.8-298.4 0-217.8 167-396.6 379.8-414.6-55.6-31.4-119.8-49.4-188.2-49.4-211.6 0-383 171.8-383 384 0 189.6 137 347 317.2 378.4zM513.4 869.4c-3 13.8-14.6 23.8-28.6 25-12.6 1-25.2 1.6-38 1.6-246.8 0-446.8-200.6-446.8-448s200-448 447-448c121.2 0 231 48.4 311.6 126.8 10 9.8 12.6 25 6.2 37.4s-20.2 19.4-34 17c-19.6-3.4-39.6-5.2-60.2-5.2-193.8 0-351 157.6-351 352 0 131.6 72 246.2 178.6 306.6 12.2 7 18.4 21 15.4 34.6z" />
<glyph unicode="&#xe93c;" glyph-name="right-from-bracket" d="M958.4 451.6c1-1 1.6-2.2 1.6-3.6s-0.6-2.8-1.6-3.6l-263.8-248.8c-2.4-2.4-5.8-3.6-9.2-3.6-7.4 0-13.4 6-13.4 13.4v114.6c0 17.6-14.4 32-32 32h-240c-8.8 0-16 7.2-16 16v160c0 8.8 7.2 16 16 16h240c17.6 0 32 14.4 32 32v114.6c0 7.4 6 13.4 13.4 13.4 3.4 0 6.6-1.4 9.2-3.6l263.8-248.8zM1024 448c0 19-7.8 37.2-21.6 50.2l-264 248.8c-14.4 13.4-33.4 21-53 21-42.8 0-77.4-34.6-77.4-77.4v-82.6h-208c-44.2 0-80-35.8-80-80v-160c0-44.2 35.8-80 80-80h208v-82.6c0-42.8 34.6-77.4 77.4-77.4 19.8 0 38.8 7.6 53 21l264 248.8c13.8 13 21.6 31.2 21.6 50.2zM352 832c17.6 0 32 14.4 32 32s-14.4 32-32 32h-192c-88.4 0-160-71.6-160-160v-576c0-88.4 71.6-160 160-160h192c17.6 0 32 14.4 32 32s-14.4 32-32 32h-192c-53 0-96 43-96 96v576c0 53 43 96 96 96h192z" />
<glyph unicode="&#xe93d;" glyph-name="caret-down" horiz-adv-x="640" d="M274.8 210.8c25-25 65.6-25 90.6 0l256 256c18.4 18.4 23.8 45.8 13.8 69.8s-33.2 39.6-59.2 39.6l-512-0.2c-25.8 0-49.2-15.6-59.2-39.6s-4.4-51.4 13.8-69.8l256-256z" />
<glyph unicode="&#xe93e;" glyph-name="caret-left" horiz-adv-x="512" d="M18.8 402.8c-25 25-25 65.6 0 90.6l256 256c18.4 18.4 45.8 23.8 69.8 13.8s39.6-33.2 39.6-59.2v-512c0-25.8-15.6-49.2-39.6-59.2s-51.4-4.4-69.8 13.8l-256 256z" />
<glyph unicode="&#xe93f;" glyph-name="paper-plane" d="M1023.2 886.2c3.8 24.2-6.8 48.6-27 62.4s-46.6 15-68 2.8l-896-512c-21.2-12-33.6-35-32-59.4s16.8-45.8 39.2-55.2l280.6-116.8v-186c0-47.6 38.6-86 86-86 26.2 0 50.8 11.8 67.2 32.2l105.6 132h0.2l228.4-95.2c18.2-7.6 38.8-6.4 56 3.2s29 26.6 32 46l128 832zM517.2 125.8l-94-117.6c-4.2-5.2-10.6-8.2-17.2-8.2-12.2 0-22 9.8-22 22v159.4l133.2-55.6zM603.4 159.2l-193.2 80.6 538 579.2-116.2-755-228.4 95.2zM901 862.4l-553.8-596.4-283.2 118 837 478.4z" />
<glyph unicode="&#xe940;" glyph-name="sliders" d="M0 128c0-17.6 14.4-32 32-32h131.2c14.8-73 79.4-128 156.8-128s142 55 156.8 128h515.2c17.6 0 32 14.4 32 32s-14.4 32-32 32h-515.2c-14.8 73-79.4 128-156.8 128s-142-55-156.8-128h-131.2c-17.6 0-32-14.4-32-32zM224 128c0 53.019 42.981 96 96 96s96-42.981 96-96v0c0-53.019-42.981-96-96-96s-96 42.981-96 96v0zM608 448c0 53.019 42.981 96 96 96s96-42.981 96-96v0c0-53.019-42.981-96-96-96s-96 42.981-96 96v0zM704 608c-77.4 0-142-55-156.8-128h-515.2c-17.6 0-32-14.4-32-32s14.4-32 32-32h515.2c14.8-73 79.4-128 156.8-128s142 55 156.8 128h131.2c17.6 0 32 14.4 32 32s-14.4 32-32 32h-131.2c-14.8 73-79.4 128-156.8 128zM384 672c-53.019 0-96 42.981-96 96s42.981 96 96 96v0c53.019 0 96-42.981 96-96s-42.981-96-96-96v0zM540.8 800c-14.8 73-79.4 128-156.8 128s-142-55-156.8-128h-195.2c-17.6 0-32-14.4-32-32s14.4-32 32-32h195.2c14.8-73 79.4-128 156.8-128s142 55 156.8 128h451.2c17.6 0 32 14.4 32 32s-14.4 32-32 32h-451.2z" />
<glyph unicode="&#xe941;" glyph-name="eye-slash" horiz-adv-x="1280" d="M51.8 953.2c-13.8 10.8-34 8.4-45-5.4s-8.4-34 5.4-45l1216-960c13.8-11 34-8.6 45 5.2s8.6 34-5.2 45l-1216.2 960.2zM1211 423.4c6.6 15.8 6.6 33.4 0 49.2-29.8 71.4-92.4 175.4-186 262.2-94 87.6-223.4 161.2-385 161.2-102.4 0-192-29.6-267.8-73.6l54.6-43c62.4 32.2 133.6 52.6 213.2 52.6 140.8 0 255.4-64 341.6-144s143.8-176 170.4-240c-18.4-44.2-51.8-104-99-163l50.2-39.6c51.2 64 87.4 128.8 107.8 178zM176.8 650.6c-51.2-64-87.4-128.8-107.8-178-6.6-15.8-6.6-33.4 0-49.2 29.8-71.4 92.4-175.4 186-262.2 94-87.6 223.4-161.2 385-161.2 102.4 0 192 29.6 267.8 73.6l-54.6 43c-62.4-32.2-133.6-52.6-213.2-52.6-140.8 0-255.4 64-341.6 144s-143.8 176-170.4 240c18.4 44.2 51.8 104 99 163l-50.2 39.6zM640 192c33.4 0 65.4 6.4 94.8 18.2l-61.8 48.8c-10.8-1.8-21.8-2.8-33-2.8-102 0-185.6 79.6-191.6 180.2l-61.8 48.8c-1.8-12-2.6-24.4-2.6-37 0-141.4 114.6-256 256-256zM896 448c0 141.4-114.6 256-256 256-33.4 0-65.4-6.4-94.8-18.2l61.8-48.8c10.8 1.8 21.8 2.8 33 2.8 102 0 185.6-79.6 191.6-180.2l61.8-48.8c1.8 12 2.6 24.4 2.6 37z" />
<glyph unicode="&#xe942;" glyph-name="star-solid" horiz-adv-x="1152" d="M633.8 924c-10.6 22-33 36-57.6 36s-46.8-14-57.6-36l-128.6-264.6-287.2-42.4c-24-3.6-44-20.4-51.4-43.4s-1.4-48.4 15.8-65.4l208.4-206.2-49.2-291.4c-4-24 6-48.4 25.8-62.6s46-16 67.6-4.6l256.6 137 256.6-137c21.6-11.4 47.8-9.8 67.6 4.6s29.8 38.6 25.8 62.6l-49.4 291.4 208.4 206.2c17.2 17 23.4 42.4 15.8 65.4s-27.4 39.8-51.4 43.4l-287.4 42.4-128.6 264.6z" />
<glyph unicode="&#xe943;" glyph-name="image" d="M128 832c-35.4 0-64-28.6-64-64v-466.8l135.4 135.4c31.2 31.2 81.8 31.2 113.2 0l135.4-135.4 263.4 263.4c31.2 31.2 81.8 31.2 113.2 0l135.4-135.4v338.8c0 35.4-28.6 64-64 64h-768zM64 210.8v-82.8c0-35.4 28.6-64 64-64h82.8l192 192-135.4 135.4c-6.2 6.2-16.4 6.2-22.6 0l-180.8-180.6zM779.4 519.4c-6.2 6.2-16.4 6.2-22.6 0l-455.6-455.4h594.8c35.4 0 64 28.6 64 64v210.8l-180.6 180.6zM0 768c0 70.6 57.4 128 128 128h768c70.6 0 128-57.4 128-128v-640c0-70.6-57.4-128-128-128h-768c-70.6 0-128 57.4-128 128v640zM320 672c0 17.673-14.327 32-32 32s-32-14.327-32-32v0c0-17.673 14.327-32 32-32s32 14.327 32 32v0zM192 672c0 53.019 42.981 96 96 96s96-42.981 96-96v0c0-53.019-42.981-96-96-96s-96 42.981-96 96v0z" />
<glyph unicode="&#xe944;" glyph-name="sun-bright" d="M512 960c17.6 0 32-14.4 32-32v-160c0-17.6-14.4-32-32-32s-32 14.4-32 32v160c0 17.6 14.4 32 32 32zM0 448c0 17.6 14.4 32 32 32h160c17.6 0 32-14.4 32-32s-14.4-32-32-32h-160c-17.6 0-32 14.4-32 32zM800 448c0 17.6 14.4 32 32 32h160c17.6 0 32-14.4 32-32s-14.4-32-32-32h-160c-17.6 0-32 14.4-32 32zM512 160c17.6 0 32-14.4 32-32v-160c0-17.6-14.4-32-32-32s-32 14.4-32 32v160c0 17.6 14.4 32 32 32zM150 810c12.4 12.4 32.8 12.4 45.2 0l113.2-113.2c12.4-12.4 12.4-32.8 0-45.2s-32.8-12.4-45.2 0l-113.2 113.2c-12.4 12.4-12.4 32.8 0 45.2zM150 86c-12.4 12.4-12.4 32.8 0 45.2l113.2 113.2c12.4 12.4 32.8 12.4 45.2 0s12.4-32.8 0-45.2l-113.2-113.2c-12.4-12.4-32.8-12.4-45.2 0zM715.6 651.6c-12.4 12.4-12.4 32.8 0 45.2l113.2 113.2c12.4 12.4 32.8 12.4 45.2 0s12.4-32.8 0-45.2l-113.2-113.2c-12.4-12.4-32.8-12.4-45.2 0zM715.6 244.4c12.4 12.4 32.8 12.4 45.2 0l113.2-113.2c12.4-12.4 12.4-32.8 0-45.2s-32.8-12.4-45.2 0l-113.2 113.2c-12.4 12.4-12.4 32.8 0 45.2zM672 448c0 88.366-71.634 160-160 160s-160-71.634-160-160v0c0-88.366 71.634-160 160-160s160 71.634 160 160v0zM288 448c0 123.712 100.288 224 224 224s224-100.288 224-224v0c0-123.712-100.288-224-224-224s-224 100.288-224 224v0z" />
<glyph unicode="&#xe945;" glyph-name="arrow-rotate-left" d="M96 576c-17.6 0-32 14.4-32 32v256c0 17.6 14.4 32 32 32s32-14.4 32-32v-185.2c78.4 130.2 221 217.2 384 217.2 247.4 0 448-200.6 448-448s-200.6-448-448-448c-159.8 0-300 83.6-379.4 209.6-13 20.8 2.8 46.4 27.4 46.4 12 0 22.8-6.4 29.4-16.4 68.4-105.6 187.4-175.6 322.6-175.6 212 0 384 172 384 384s-172 384-384 384c-142.2 0-266.2-77.2-332.6-192h172.6c17.6 0 32-14.4 32-32s-14.4-32-32-32h-256z" />
<glyph unicode="&#xe946;" glyph-name="calendar" horiz-adv-x="896" d="M224 960c17.6 0 32-14.4 32-32v-96h384v96c0 17.6 14.4 32 32 32s32-14.4 32-32v-96h64c70.6 0 128-57.4 128-128v-640c0-70.6-57.4-128-128-128h-640c-70.6 0-128 57.4-128 128v640c0 70.6 57.4 128 128 128h64v96c0 17.6 14.4 32 32 32zM832 576h-768v-512c0-35.4 28.6-64 64-64h640c35.4 0 64 28.6 64 64v512zM768 768h-640c-35.4 0-64-28.6-64-64v-64h768v64c0 35.4-28.6 64-64 64z" />
<glyph unicode="&#xe947;" glyph-name="code" horiz-adv-x="1280" d="M810.2 958.4c-16.8 5.6-34.8-3.4-40.4-20.2l-320-960c-5.6-16.8 3.4-34.8 20.2-40.4s34.8 3.4 40.4 20.2l320 960c5.6 16.8-3.4 34.8-20.2 40.4zM344 725.2c-11.8 13.2-32 14.4-45.2 2.6l-288-256c-6.8-6-10.8-14.6-10.8-23.8s4-17.8 10.8-24l288-256c13.2-11.8 33.4-10.6 45.2 2.6s10.6 33.4-2.6 45.2l-261.2 232.2 261 232c13.2 11.8 14.4 32 2.6 45.2zM936.2 725.2c-11.8-13.2-10.6-33.4 2.6-45.2l261-232-261-232c-13.2-11.8-14.4-32-2.6-45.2s32-14.4 45.2-2.6l288 256c6.8 6 10.8 14.8 10.8 24s-4 17.8-10.8 24l-288 256c-13.2 11.8-33.4 10.6-45.2-2.6z" />
<glyph unicode="&#xe948;" glyph-name="grid-3" horiz-adv-x="896" d="M176 832c8.8 0 16-7.2 16-16v-96c0-8.8-7.2-16-16-16h-96c-8.8 0-16 7.2-16 16v96c0 8.8 7.2 16 16 16h96zM80 896c-44.2 0-80-35.8-80-80v-96c0-44.2 35.8-80 80-80h96c44.2 0 80 35.8 80 80v96c0 44.2-35.8 80-80 80h-96zM176 512c8.8 0 16-7.2 16-16v-96c0-8.8-7.2-16-16-16h-96c-8.8 0-16 7.2-16 16v96c0 8.8 7.2 16 16 16h96zM80 576c-44.2 0-80-35.8-80-80v-96c0-44.2 35.8-80 80-80h96c44.2 0 80 35.8 80 80v96c0 44.2-35.8 80-80 80h-96zM80 192h96c8.8 0 16-7.2 16-16v-96c0-8.8-7.2-16-16-16h-96c-8.8 0-16 7.2-16 16v96c0 8.8 7.2 16 16 16zM0 176v-96c0-44.2 35.8-80 80-80h96c44.2 0 80 35.8 80 80v96c0 44.2-35.8 80-80 80h-96c-44.2 0-80-35.8-80-80zM496 832c8.8 0 16-7.2 16-16v-96c0-8.8-7.2-16-16-16h-96c-8.8 0-16 7.2-16 16v96c0 8.8 7.2 16 16 16h96zM400 896c-44.2 0-80-35.8-80-80v-96c0-44.2 35.8-80 80-80h96c44.2 0 80 35.8 80 80v96c0 44.2-35.8 80-80 80h-96zM400 512h96c8.8 0 16-7.2 16-16v-96c0-8.8-7.2-16-16-16h-96c-8.8 0-16 7.2-16 16v96c0 8.8 7.2 16 16 16zM320 496v-96c0-44.2 35.8-80 80-80h96c44.2 0 80 35.8 80 80v96c0 44.2-35.8 80-80 80h-96c-44.2 0-80-35.8-80-80zM496 192c8.8 0 16-7.2 16-16v-96c0-8.8-7.2-16-16-16h-96c-8.8 0-16 7.2-16 16v96c0 8.8 7.2 16 16 16h96zM400 256c-44.2 0-80-35.8-80-80v-96c0-44.2 35.8-80 80-80h96c44.2 0 80 35.8 80 80v96c0 44.2-35.8 80-80 80h-96zM720 832h96c8.8 0 16-7.2 16-16v-96c0-8.8-7.2-16-16-16h-96c-8.8 0-16 7.2-16 16v96c0 8.8 7.2 16 16 16zM640 816v-96c0-44.2 35.8-80 80-80h96c44.2 0 80 35.8 80 80v96c0 44.2-35.8 80-80 80h-96c-44.2 0-80-35.8-80-80zM816 512c8.8 0 16-7.2 16-16v-96c0-8.8-7.2-16-16-16h-96c-8.8 0-16 7.2-16 16v96c0 8.8 7.2 16 16 16h96zM720 576c-44.2 0-80-35.8-80-80v-96c0-44.2 35.8-80 80-80h96c44.2 0 80 35.8 80 80v96c0 44.2-35.8 80-80 80h-96zM720 192h96c8.8 0 16-7.2 16-16v-96c0-8.8-7.2-16-16-16h-96c-8.8 0-16 7.2-16 16v96c0 8.8 7.2 16 16 16zM640 176v-96c0-44.2 35.8-80 80-80h96c44.2 0 80 35.8 80 80v96c0 44.2-35.8 80-80 80h-96c-44.2 0-80-35.8-80-80z" />
<glyph unicode="&#xe949;" glyph-name="ellipsis" horiz-adv-x="896" d="M832 448c0-35.346-28.654-64-64-64s-64 28.654-64 64v0c0 35.346 28.654 64 64 64s64-28.654 64-64v0zM512 448c0-35.346-28.654-64-64-64s-64 28.654-64 64v0c0 35.346 28.654 64 64 64s64-28.654 64-64v0zM128 384c-35.346 0-64 28.654-64 64s28.654 64 64 64v0c35.346 0 64-28.654 64-64s-28.654-64-64-64v0z" />
<glyph unicode="&#xe94a;" glyph-name="language" horiz-adv-x="1280" d="M608 768v-640h-480c-35.4 0-64 28.6-64 64v512c0 35.4 28.6 64 64 64h480zM672 768h480c35.4 0 64-28.6 64-64v-512c0-35.4-28.6-64-64-64h-480v640zM1280 704c0 70.6-57.4 128-128 128h-1024c-70.6 0-128-57.4-128-128v-512c0-70.6 57.4-128 128-128h1024c70.6 0 128 57.4 128 128v512zM349.8 619.8c-5 12.2-16.8 20.2-29.8 20.2s-24.8-8-29.8-20.2l-128-320c-6.6-16.4 1.4-35 17.8-41.6s35 1.4 41.6 17.8l17.6 43.8h161.4l17.6-43.8c6.6-16.4 25.2-24.4 41.6-17.8s24.4 25.2 17.8 41.6l-128 320zM320 521.8l55.2-137.8h-110.2l55 137.8zM992 608c0 17.6-14.4 32-32 32s-32-14.4-32-32v-32h-128c-17.6 0-32-14.4-32-32s14.4-32 32-32h242.4l-0.4-1.2c-16.4-45.2-42.8-85.8-76.4-118.8l-46.8 46.8c-12.4 12.4-32.8 12.4-45.2 0s-12.4-32.8 0-45.2l41.8-41.8c-10-6.4-20.2-12.4-31-17.6l-34.6-17.2c-15.8-8-22.2-27.2-14.4-43s27.2-22.2 43-14.4l34.6 17.2c18.2 9.2 35.6 19.6 52 31.4 11.8-8.8 24.2-17.2 36.8-24.8l37.8-22.6c15.2-9 34.8-4.2 43.8 11s4.2 34.8-11 43.8l-37.8 22.6c-6.8 4-13.4 8.2-19.8 12.8 38.2 38.8 68.2 85.8 87.2 138l8.4 23.2h9.6c17.6 0 32 14.4 32 32s-14.4 32-32 32h-128v32z" />
<glyph unicode="&#xe94b;" glyph-name="gear" d="M446.6 884.4c0.8 3 2.6 5.6 4.8 7.6 19.8 2.6 40 4 60.6 4s40.8-1.4 60.6-4c2.2-2 3.8-4.6 4.8-7.6l27.4-95.4c7-24.2 24.4-42.2 45-52.2 15.2-7.2 29.6-15.6 43.4-25 18.8-13 43.4-19 67.8-13l96.4 24c3 0.8 6 0.6 8.8-0.4 10.8-13.8 20.8-28.4 29.8-43.6l8.6-14.8c8.4-15 15.8-30.6 22.4-46.6-0.6-3-2-5.8-4.2-8l-69.2-71.4c-17.4-18-24.4-42.2-22.6-65 0.6-8.2 1-16.6 1-25s-0.4-16.8-1-25c-1.8-22.8 5.2-47 22.6-65l69-71.4c2.2-2.2 3.6-5 4.2-8-6.6-16-14-31.6-22.4-46.8l-8.4-14.6c-9.2-15.2-19.2-29.6-29.8-43.6-2.8-1-5.8-1-8.8-0.4l-96.4 24c-24.4 6-48.8 0-67.8-13-13.8-9.4-28.2-17.8-43.4-25-20.6-9.8-38.2-28-45-52.2l-27.4-95.4c-0.8-3-2.6-5.6-4.8-7.6-19.8-2.6-40-4-60.6-4s-40.8 1.4-60.6 4c-2.2 2-3.8 4.6-4.8 7.6l-27.4 95.4c-7 24.2-24.4 42.2-45 52.2-15.2 7.2-29.6 15.6-43.4 25-18.8 13-43.4 19-67.8 13l-96.4-24c-3-0.8-6-0.6-8.8 0.4-10.8 14-20.8 28.4-30 43.6l-8.4 14.6c-8.4 15-15.8 30.6-22.4 46.8 0.6 3 2 5.8 4.2 8l69.2 71.4c17.4 18 24.4 42.2 22.6 65-0.6 8.2-1 16.6-1 25s0.4 16.8 1 25c1.8 22.8-5.2 47-22.6 65l-69 71.6c-2.2 2.2-3.6 5-4.2 8 6.6 16 14 31.6 22.4 46.8l8.4 14.6c9.2 15.2 19.2 29.6 30 43.6 2.8 1 5.8 1 8.8 0.4l96.4-24c24.4-6 48.8 0 67.8 13 13.8 9.4 28.2 17.8 43.4 25 20.6 9.8 38.2 28 45 52.2l27.4 95.4zM512 960c-26 0-51.8-2-76.8-5.8-3.4-0.6-6.8-1.6-10-3.2-19-9.8-33.8-27.2-40-49l-27.4-95.4c-1.2-4.4-5-9-11.2-12-18.2-8.6-35.6-18.8-52-30-5.6-3.8-11.6-4.8-16-3.6l-96.4 24c-21.8 5.4-44.2 1.2-62.2-10.2-3-1.8-5.6-4.2-7.8-7-14.2-17.8-27.4-36.4-39.2-56l-0.2-0.6-8.8-15.2-0.2-0.6c-10.8-19.6-20.4-39.8-28.6-60.8-1.2-3.2-2-6.6-2.2-10-1-21.6 6.6-43.2 22.4-59.6l69-71.4c3.2-3.4 5.4-8.8 4.8-15.6-0.8-10-1.2-20-1.2-30s0.4-20.2 1.2-30c0.6-6.8-1.6-12.4-4.8-15.6l-69-71.6c-15.8-16.4-23.4-38-22.4-59.6 0.2-3.4 1-6.8 2.2-10 8.2-21 17.8-41.2 28.6-60.8l0.2-0.6 8.8-15.2 0.2-0.6c11.8-19.6 24.8-38.4 39.2-56.2 2.2-2.8 4.8-5.2 7.8-7 18-11.4 40.4-15.6 62.2-10.2l96.4 24c4.4 1.2 10.4 0.2 16-3.6 16.4-11.4 33.8-21.4 52-30 6.2-3 9.8-7.6 11.2-12l27.4-95c6.2-21.6 21-39 40-49 3.2-1.6 6.4-2.8 10-3.2 25-3.8 50.8-5.8 76.8-5.8s51.8 2 76.8 5.8c3.4 0.6 6.8 1.6 10 3.2 19 9.8 33.8 27.2 40 49l27.4 95.4c1.2 4.4 5 9 11.2 12 18.2 8.6 35.6 18.8 52 30 5.6 3.8 11.6 4.8 16 3.6l96.4-24c21.8-5.4 44.2-1.4 62.2 10.2 3 1.8 5.6 4.2 7.8 7 14.2 17.8 27.2 36.4 39 56l0.4 0.6 8.8 15.2 0.2 0.6c10.8 19.4 20.4 39.8 28.6 60.8 1.2 3.2 2 6.6 2.2 10 1 21.6-6.6 43.2-22.4 59.6l-69 71.4c-3.2 3.4-5.4 8.8-4.8 15.6 0.8 10 1.2 20 1.2 30s-0.4 20.2-1.2 30c-0.6 6.8 1.6 12.4 4.8 15.6l69 71.4c15.8 16.4 23.4 38 22.4 59.6-0.2 3.4-1 6.8-2.2 10-8.2 21-17.8 41.2-28.6 60.8l-0.2 0.6-8.8 15.2-0.4 0.6c-11.8 19.6-24.8 38.4-39 56-2.2 2.8-4.8 5.2-7.8 7-18 11.4-40.4 15.6-62.2 10.2l-96.4-24c-4.4-1.2-10.4-0.2-16 3.6-16.4 11.4-33.8 21.4-52 30-6.2 3-9.8 7.6-11.2 12l-27.4 95.4c-6.2 21.6-21 39-40 49-3.2 1.6-6.4 2.8-10 3.2-25 3.8-50.8 5.8-76.8 5.8zM400 448c0 61.856 50.144 112 112 112s112-50.144 112-112v0c0-61.856-50.144-112-112-112s-112 50.144-112 112v0zM688 448c0 97.202-78.798 176-176 176s-176-78.798-176-176v0c0-97.202 78.798-176 176-176s176 78.798 176 176v0z" />
<glyph unicode="&#xe94c;" glyph-name="star-slash" horiz-adv-x="1152" d="M67.76 949.28c-13.8 10.8-34 8.4-45-5.4s-8.4-34 5.4-45l1056-952c13.8-11 34-8.6 45 5.2s8.6 34-5.2 45l-1056.2 952.2zM453.080 622.34l122.8 253 122.8-253c9.2-19 27.2-32.2 48.2-35.4l274.8-40.6-199.6-197.6c-14.8-14.6-21.6-35.6-18-56.2l47-279-245 131c-18.8 10-41.4 10-60.4 0l-245.2-131 47 279c3.4 20.6-3.2 41.4-18 56.2l-199.4 197.6 274.8 40.6c21 3 39 16.4 48.2 35.4zM849.88-58.26c16.2-8.6 35.8-7.4 50.6 3.4s22.4 29 19.4 47l-52.6 311 222.4 220.4c13 12.8 17.4 31.8 11.8 49s-20.6 29.8-38.6 32.6l-306.6 45.2-137.2 282.6c-8 16.6-24.8 27-43.2 27s-35.2-10.4-43.2-27l-137.2-282.6-306.4-45.4c-18-2.6-33-15.2-38.6-32.6s-1-36.2 11.8-49l222.2-220.2-52.4-311c-3-18 4.4-36.2 19.4-47s34.6-12 50.6-3.4l274 146.4 273.8-146.4z" />
<glyph unicode="&#xe94d;" glyph-name="message-exclamation" d="M384 128c0 35.4-28.6 64-64 64h-192c-35.4 0-64 28.6-64 64v576c0 35.4 28.6 64 64 64h768c35.4 0 64-28.6 64-64v-576c0-35.4-28.6-64-64-64h-277.4c-13.8 0-27.4-4.4-38.4-12.8l-196.2-147.2v96zM128 960c-70.6 0-128-57.4-128-128v-576c0-70.6 57.4-128 128-128h192v-160c0-12.2 6.8-23.2 17.6-28.6s23.8-4.2 33.6 3l247.4 185.6h277.4c70.6 0 128 57.4 128 128v576c0 70.6-57.4 128-128 128h-768zM512 800c-17.6 0-32-14.4-32-32v-256c0-17.6 14.4-32 32-32s32 14.4 32 32v256c0 17.6-14.4 32-32 32zM560 352c0 26.51-21.49 48-48 48s-48-21.49-48-48v0c0-26.51 21.49-48 48-48s48 21.49 48 48v0z" />
<glyph unicode="&#xe94e;" glyph-name="arrow-down-a-z" horiz-adv-x="1152" d="M534.6 201.4l-192-192c-12.4-12.4-32.8-12.4-45.2 0l-192 192c-12.4 12.4-12.4 32.8 0 45.2s32.8 12.4 45.2 0l137.4-137.4v754.8c0 17.6 14.4 32 32 32s32-14.4 32-32v-754.8l137.4 137.4c12.4 12.4 32.8 12.4 45.2 0s12.4-32.8 0-45.2zM860.6 878.4l127.8-255.4c0.2-0.4 0.4-0.8 0.6-1.2l31.6-63.4c8-15.8 1.4-35-14.4-43s-35-1.4-43 14.4l-23 46.2h-216.4l-23.2-46.4c-8-15.8-27.2-22.2-43-14.4s-22.2 27.2-14.4 43l31.6 63.4c0.2 0.4 0.4 0.8 0.6 1.2l128 255.6c5.4 10.8 16.4 17.6 28.6 17.6s23.2-6.8 28.6-17.6zM832 792.4l-76.2-152.4h152.4l-76.2 152.4zM704 384h256c12.4 0 23.6-7 28.8-18.2s3.8-24.2-3.8-33.8l-214.4-268h189.4c17.6 0 32-14.4 32-32s-14.4-32-32-32h-256c-12.4 0-23.6 7-28.8 18.2s-3.8 24.2 3.8 33.8l214.4 268h-189.4c-17.6 0-32 14.4-32 32s14.4 32 32 32z" />
<glyph unicode="&#xe94f;" glyph-name="arrow-up-a-z" horiz-adv-x="1152" d="M342.6 886.6c-12.4 12.4-32.8 12.4-45.2 0l-192-192c-12.4-12.4-12.4-32.8 0-45.2s32.8-12.4 45.2 0l137.4 137.4v-754.8c0-17.6 14.4-32 32-32s32 14.4 32 32v754.8l137.4-137.4c12.4-12.4 32.8-12.4 45.2 0s12.4 32.8 0 45.2l-192 192zM704 384c-17.6 0-32-14.4-32-32s14.4-32 32-32h189.4l-214.4-268c-7.6-9.6-9.2-22.8-3.8-33.8s16.6-18.2 28.8-18.2h256c17.6 0 32 14.4 32 32s-14.4 32-32 32h-189.4l214.4 268c7.6 9.6 9.2 22.8 3.8 33.8s-16.6 18.2-28.8 18.2h-256zM832 896c-12.2 0-23.2-6.8-28.6-17.6l-127.8-255.6c-0.2-0.4-0.4-0.8-0.6-1.2l-31.6-63.4c-8-15.8-1.4-35 14.4-43s35-1.4 43 14.4l23 46.4h216.4l23.2-46.4c8-15.8 27.2-22.2 43-14.4s22.2 27.2 14.4 43l-31.6 63.4c-0.2 0.4-0.4 0.8-0.6 1.2l-128 255.6c-5.4 10.8-16.4 17.6-28.6 17.6zM755.8 640l76.2 152.4 76.2-152.4h-152.4z" />
<glyph unicode="&#xe950;" glyph-name="up-down-left-right" d="M505.8 893.2l-113.8-125.2h240l-113.8 125.2c-1.6 1.8-3.8 2.8-6.2 2.8s-4.6-1-6.2-2.8zM565.4 936.2l123.4-135.8c9.6-10.6 15-24.4 15-38.8 0-31.8-25.8-57.6-57.6-57.6h-102.2v-224h224v-64h-224v-224h102.4c31.8 0 57.6-25.8 57.6-57.6 0-14.4-5.4-28.2-15-38.8l-123.4-135.8c-13.8-15-33.2-23.6-53.6-23.6s-39.8 8.6-53.6 23.6l-123.4 135.8c-9.6 10.6-15 24.4-15 38.8 0 31.8 25.8 57.6 57.6 57.6h102.4v224h-224v-102.4c0-31.8-25.8-57.6-57.6-57.6-14.4 0-28.2 5.4-38.8 15l-136 123.4c-15 13.8-23.6 33.2-23.6 53.6s8.6 39.8 23.6 53.6l135.8 123.4c10.6 9.6 24.4 15 38.8 15 31.8 0 57.6-25.8 57.6-57.6v-102.4h224v224h-102.4c-31.8 0-57.6 25.8-57.6 57.6 0 14.4 5.4 28.2 15 38.8l123.4 135.8c14 15.2 33.4 23.8 53.8 23.8s39.8-8.6 53.6-23.6zM632 128h-240l113.8-125.2c1.6-1.8 3.8-2.8 6.2-2.8s4.6 1 6.2 2.8l113.8 125.2zM957.2 441.8c1.8 1.6 2.8 3.8 2.8 6.2s-1 4.6-2.8 6.2l-125.2 113.8v-240l125.2 113.8zM864.4 271c-10.6-9.6-24.4-15-38.8-15-31.8 0-57.6 25.8-57.6 57.6v268.6c0 31.8 25.8 57.6 57.6 57.6 14.4 0 28.2-5.4 38.8-15l135.8-123.4c15-13.8 23.6-33.2 23.6-53.6s-8.6-39.8-23.6-53.6l-135.8-123.4zM66.8 454.2c-1.8-1.6-2.8-3.8-2.8-6.2s1-4.6 2.8-6.2l125.2-113.8v240l-125.2-113.8z" />
<glyph unicode="&#xe951;" glyph-name="thumb" d="M577.6 796.6c7 25.6 33.4 40.6 59 33.6s40.6-33.4 33.6-59l-9-32.8c-11-40.4-27.8-78.6-49.4-113.8-6.2-9.8-6.4-22.2-0.8-32.4s16.4-16.4 28-16.4l257 0.2c35.4 0 64-28.6 64-64 0-22.6-11.8-42.6-29.6-54-14.4-9.2-19-27.8-10.6-42.6 5.2-9.2 8.2-20 8.2-31.4 0-24.8-14-46.2-34.6-57-8.4-4.4-14.6-12.2-16.6-21.6s0.2-19 6-26.4c8.4-10.8 13.4-24.4 13.4-39 0-28.4-18.4-52.6-44.2-60.8-15.6-5-24.8-21.2-21.4-37.2 1-4.4 1.4-9 1.4-13.8 0-35.4-28.6-64-64-64h-179c-31.6 0-62.4 9.4-88.8 26.8l-77 51.4c-18 12-33.2 27.4-44.8 45.2-9.8 14.8-29.6 18.8-44.4 9.2s-18.8-29.6-9.2-44.4c16.2-24.6 37.4-46.2 62.8-63.2l77-51.4c36.8-24.6 80-37.6 124.2-37.6h179c70.6 0 128 57.4 128 128v1.2c38.2 22.2 64 63.4 64 110.8 0 17.4-3.6 34.2-9.8 49.4 25.8 23.2 42 56.8 42 94.4 0 13-2 25.6-5.6 37.4 23.2 23.2 37.6 55.2 37.6 90.6 0 70.6-57.4 128-128 128h-203.2c12.4 26.2 22.6 53.4 30.2 81.8l9 32.8c16.2 59.6-19 121.2-78.6 137.6s-121.2-19-137.6-78.6l-9-32.8c-17.8-65.2-59.2-121.6-116.4-158l-6.2-4c-23.6-15-43.4-34.2-59-56.4-10.2-14.4-6.6-34.4 8-44.6s34.4-6.6 44.6 8c10.8 15.4 24.4 28.8 40.8 39l6.2 4c70.6 44.8 121.8 114.4 143.8 195l9 32.8zM64 512h128v-448h-128v448zM0 512v-448c0-35.4 28.6-64 64-64h128c35.4 0 64 28.6 64 64v448c0 35.4-28.6 64-64 64h-128c-35.4 0-64-28.6-64-64z" />
<glyph unicode="&#xe952;" glyph-name="folder-arrow-right" d="M64 768c0 35.4 28.6 64 64 64h248.2c17 0 33.2-6.8 45.2-18.8l71.8-71.8c24-24 56.6-37.4 90.6-37.4h312.2c35.4 0 64-28.6 64-64v-512c0-35.4-28.6-64-64-64h-768c-35.4 0-64 28.6-64 64v640zM128 896c-70.6 0-128-57.4-128-128v-640c0-70.6 57.4-128 128-128h768c70.6 0 128 57.4 128 128v512c0 70.6-57.4 128-128 128h-312.2c-17 0-33.2 6.8-45.2 18.8l-71.8 71.8c-24 24-56.6 37.4-90.6 37.4h-248.2zM594.86 351.96l-105.4-105.4c-12.4-12.4-12.4-32.8 0-45.2s32.8-12.4 45.2 0l160 160c12.4 12.4 12.4 32.8 0 45.2l-160 160c-12.4 12.4-32.8 12.4-45.2 0s-12.4-32.8 0-45.2l105.4-105.4h-242.8c-17.6 0-32-14.4-32-32s14.4-32 32-32h242.8z" />
<glyph unicode="&#xe954;" glyph-name="user-check" horiz-adv-x="1280" d="M448 896c106.039 0 192-85.961 192-192s-85.961-192-192-192v0c-106.039 0-192 85.961-192 192s85.961 192 192 192v0zM448 448c141.385 0 256 114.615 256 256s-114.615 256-256 256v0c-141.385 0-256-114.615-256-256s114.615-256 256-256v0zM356.6 288h182.8c160 0 290-128.6 292.6-288h-768c2.4 159.4 132.4 288 292.6 288zM356.6 352c-197 0-356.6-159.6-356.6-356.6 0-32.8 26.6-59.4 59.4-59.4h777.2c32.8 0 59.4 26.6 59.4 59.4 0 197-159.6 356.6-356.6 356.6h-182.8zM1270.6 585.4c12.4 12.4 12.4 32.8 0 45.2s-32.8 12.4-45.2 0l-233.4-233.4-105.4 105.4c-12.4 12.4-32.8 12.4-45.2 0s-12.4-32.8 0-45.2l128-128c12.4-12.4 32.8-12.4 45.2 0l256 256z" />
<glyph unicode="&#xe955;" glyph-name="pen" d="M791.6 880.8c18.8 18.8 49.2 18.8 67.8 0l85.2-85.2c18.8-18.8 18.8-49.2 0-67.8l-109.4-109.8-153.2 153.2 109.6 109.6zM636.8 726l153.2-153.2-470.8-470.6c-15.2-15.2-33.8-26.2-54.4-32.2l-185.6-54.8 54.6 185.6c6 20.6 17.2 39.2 32.2 54.4l470.8 470.8zM904.8 926c-43.8 43.8-114.6 43.8-158.4 0l-625.6-625.4c-22.8-22.8-39.4-50.8-48.4-81.6l-71-242c-3.4-11.2-0.2-23.4 8-31.6s20.4-11.4 31.6-8l242 71.2c30.8 9 58.8 25.8 81.6 48.4l625.4 625.4c43.8 43.8 43.8 114.6 0 158.4l-85.2 85.2z" />
<glyph unicode="&#xe958;" glyph-name="bullseye-arrow" d="M652.6 940.4c-44.6 12.8-91.8 19.6-140.6 19.6-282.8 0-512-229.2-512-512s229.2-512 512-512 512 229.2 512 512c0 48.8-6.8 96-19.6 140.6l-45.6-50.8c-2.2-2.4-4.2-4.6-6.6-6.8 5-27 7.6-54.6 7.6-83 0-247.4-200.6-448-448-448s-447.8 200.6-447.8 448 200.6 448 448 448c28.4 0 56.2-2.6 83-7.6 2.2 2.2 4.4 4.4 6.8 6.6l50.8 45.4zM549.2 765.8c-12.2 1.4-24.6 2.2-37.2 2.2-176.8 0-320-143.2-320-320s143.2-320 320-320 320 143.2 320 320c0 12.6-0.8 25-2.2 37.2-5.4 0.4-10.8 1-16.2 1.8l-50 8.4c2.8-15.4 4.4-31.2 4.4-47.4 0-141.4-114.6-256-256-256s-256 114.6-256 256 114.6 256 256 256c16.2 0 32-1.6 47.4-4.4l-8.4 50c-1 5.4-1.6 10.8-1.8 16.2zM683 573.6l140.8-23.4c32.6-5.4 65.6 6.2 87.6 31l87.8 98.8c23.4 26.2 11.6 67.8-22 77.8l-119.4 35.8-36 119.6c-10 33.6-51.6 45.4-77.8 22l-98.8-87.8c-24.6-22-36.4-55-31-87.6l23.4-140.8-148.4-148.4c-12.4-12.4-12.4-32.8 0-45.2s32.8-12.4 45.2 0l148.4 148.4zM738.6 629.2l102.6 102.6 93.6-28-71.2-80c-7.4-8.2-18.4-12.2-29.2-10.4l-95.8 16zM795.8 777l-102.6-102.6-16 95.8c-1.8 10.8 2 21.8 10.4 29.2l80 71.2 28-93.6z" />
<glyph unicode="&#xe959;" glyph-name="link" horiz-adv-x="1280" d="M1183 448c100 100 100 262 0 362s-262 100-362 0l-45.2-45.2c-12.4-12.4-12.4-32.8 0-45.2s32.8-12.4 45.2 0l45.2 45.2c75 75 196.6 75 271.6 0s75-196.6 0-271.6l-249.2-249c-74.8-74.8-196.2-74.8-271.2 0-71.2 71.2-75.2 185.2-9.4 261.2l10.6 12.2c11.6 13.4 10.2 33.6-3.2 45.2s-33.6 10.2-45.2-3.2l-10.6-12.2c-87.8-101.4-82.4-253.4 12.4-348.2 99.8-99.8 261.8-99.8 361.6 0l249.4 248.8zM97 448c-100-100-100-262 0-362s262-100 362 0l45.2 45.2c12.4 12.4 12.4 32.8 0 45.2s-32.8 12.4-45.2 0l-45.2-45.2c-75-75-196.6-75-271.6 0s-75 196.6 0 271.6l249.2 249c74.8 74.8 196.2 74.8 271.2 0 71.2-71.2 75.2-185.2 9.4-261.2l-10.6-12.2c-11.6-13.4-10.2-33.6 3.2-45.2s33.6-10.2 45.2 3.2l10.6 12.2c87.8 101.4 82.4 253.4-12.4 348.2-100.2 100.2-262 100.2-362 0.4l-249-249.2z" />
<glyph unicode="&#xe95a;" glyph-name="newspaper" d="M320 832c-35.4 0-64-28.6-64-64v-640c0-23.4-6.2-45.2-17.2-64h625.2c53 0 96 43 96 96v608c0 35.4-28.6 64-64 64h-576zM128 0c-70.6 0-128 57.4-128 128v512c0 70.6 57.4 128 128 128v-64c-35.4 0-64-28.6-64-64v-512c0-35.4 28.6-64 64-64s64 28.6 64 64v640c0 70.6 57.4 128 128 128h576c70.6 0 128-57.4 128-128v-608c0-88.4-71.6-160-160-160h-736zM768 736c0 17.6 14.4 32 32 32h64c17.6 0 32-14.4 32-32s-14.4-32-32-32h-64c-17.6 0-32 14.4-32 32zM768 608c0 17.6 14.4 32 32 32h64c17.6 0 32-14.4 32-32s-14.4-32-32-32h-64c-17.6 0-32 14.4-32 32zM768 480c0 17.6 14.4 32 32 32h64c17.6 0 32-14.4 32-32s-14.4-32-32-32h-64c-17.6 0-32 14.4-32 32zM320 352c0 17.6 14.4 32 32 32h512c17.6 0 32-14.4 32-32s-14.4-32-32-32h-512c-17.6 0-32 14.4-32 32zM320 224c0 17.6 14.4 32 32 32h512c17.6 0 32-14.4 32-32s-14.4-32-32-32h-512c-17.6 0-32 14.4-32 32zM384 512h256v192h-256v-192zM320 720c0 26.6 21.4 48 48 48h288c26.6 0 48-21.4 48-48v-224c0-26.6-21.4-48-48-48h-288c-26.6 0-48 21.4-48 48v224z" />
<glyph unicode="&#xe95b;" glyph-name="chart-pie" horiz-adv-x="1152" d="M1022.6 544h-350.6v350.6c186.6-15.4 335.2-164.2 350.6-350.6zM640 480h417c16.8 0 30.8 13 31 29.8v2.2c0 247.4-200.6 448-448 448h-2.2c-16.8 0-29.8-14.2-29.8-31v-417c0-17.6 14.4-32 32-32zM466.8 338.8l283.8-284c-60.8-34.8-131.4-54.8-206.6-54.8-229.8 0-416 186.2-416 416 0 196.6 136.6 361.6 320 404.8v-436.8c0-17 6.8-33.2 18.8-45.2zM478 891.4c-233.8-32-414-232.8-414-475.4 0-265 215-480 480-480 103.6 0 199.6 32.8 278 88.6 15.4 11 16.4 33 3 46.2l-313 313.2v476.8c0 18.4-15.6 33.2-34 30.8zM979.2 135.4l-184.6 184.6h282.4c-16.6-70-50.8-133.2-97.8-184.6zM1147.6 350c2.6 18.4-12.2 34-30.8 34h-399.6c-28.6 0-42.8-34.4-22.6-54.6l262.8-262.8c11.6-11.6 30.4-12.6 42.4-1.4 78.6 73.4 132.4 173 147.8 284.6z" />
<glyph unicode="&#xe95c;" glyph-name="bars-progress" d="M928 768c17.6 0 32-14.4 32-32v-128c0-17.6-14.4-32-32-32h-288v192h288zM96 768h480v-192h-480c-17.6 0-32 14.4-32 32v128c0 17.6 14.4 32 32 32zM96 832c-53 0-96-43-96-96v-128c0-53 43-96 96-96h832c53 0 96 43 96 96v128c0 53-43 96-96 96h-832zM928 320c17.6 0 32-14.4 32-32v-128c0-17.6-14.4-32-32-32h-544v192h544zM96 320h224v-192h-224c-17.6 0-32 14.4-32 32v128c0 17.6 14.4 32 32 32zM96 384c-53 0-96-43-96-96v-128c0-53 43-96 96-96h832c53 0 96 43 96 96v128c0 53-43 96-96 96h-832z" />
<glyph unicode="&#xe95d;" glyph-name="cloud-bolt" d="M192 736c0 88.4 71.6 160 160 160 64.4 0 119.8-38 145.2-92.8 4.4-9.6 13.2-16.2 23.6-18s20.8 1.6 28.2 9c23.2 23.4 55.4 38 91 38 70.6 0 128-57.4 128-128v-0.6c0-9 3.8-17.6 10.4-23.6s15.6-9 24.4-8.2c4.4 0.4 8.6 0.6 13.2 0.6 79.6 0 144-64.4 144-144s-64.4-144-144-144h-48v-46.8c5.2-5.2 10-11 14.2-17.2h33.8c114.8 0 208 93.2 208 208 0 110.4-86 200.6-194.6 207.6-15 90.6-94.2 160-189.4 160-38.6 0-74.6-11.4-104.8-31-40.6 57.4-107.4 95-183.2 95-123.8 0-224-100.2-224-224 0-5.2 0.2-10.6 0.6-15.8-75.4-31.2-128.6-105.4-128.6-192.2 0-114.8 93.2-208 208-208h107.6l67.6 64h-175.2c-79.6 0-144 64.4-144 144 0 67 45.8 123.4 107.8 139.4 16.4 4.2 26.6 20.6 23.4 37.2-2 10.2-3 20.6-3 31.4zM383.4 208l170.2 161.2-38.8-83.8c-4.6-10-3.8-21.4 2-30.6s16-14.8 27-14.8h96.6l-170.2-161.2 38.8 83.8c4.6 10 3.8 21.4-2 30.6s-16 14.8-27 14.8h-96.6zM424.4-53l298.2 282.4c8.6 8.2 13.4 19.4 13.4 31.4 0 23.8-19.4 43.2-43.2 43.2h-98.8l69.6 151c12.2 26.6-7.2 57-36.4 57-10.2 0-20.2-4-27.6-11l-298.2-282.4c-8.6-8.2-13.4-19.4-13.4-31.4 0-23.8 19.4-43.2 43.2-43.2h98.8l-69.6-151c-12.2-26.6 7.2-57 36.4-57 10.2 0 20.2 4 27.6 11z" />
<glyph unicode="&#xe95e;" glyph-name="microchip" d="M352 928c0 17.6-14.4 32-32 32s-32-14.4-32-32v-96h-32c-70.6 0-128-57.4-128-128v-32h-96c-17.6 0-32-14.4-32-32s14.4-32 32-32h96v-128h-96c-17.6 0-32-14.4-32-32s14.4-32 32-32h96v-128h-96c-17.6 0-32-14.4-32-32s14.4-32 32-32h96v-32c0-70.6 57.4-128 128-128h32v-96c0-17.6 14.4-32 32-32s32 14.4 32 32v96h128v-96c0-17.6 14.4-32 32-32s32 14.4 32 32v96h128v-96c0-17.6 14.4-32 32-32s32 14.4 32 32v96h32c70.6 0 128 57.4 128 128v32h96c17.6 0 32 14.4 32 32s-14.4 32-32 32h-96v128h96c17.6 0 32 14.4 32 32s-14.4 32-32 32h-96v128h96c17.6 0 32 14.4 32 32s-14.4 32-32 32h-96v32c0 70.6-57.4 128-128 128h-32v96c0 17.6-14.4 32-32 32s-32-14.4-32-32v-96h-128v96c0 17.6-14.4 32-32 32s-32-14.4-32-32v-96h-128v96zM832 704v-512c0-35.4-28.6-64-64-64h-512c-35.4 0-64 28.6-64 64v512c0 35.4 28.6 64 64 64h512c35.4 0 64-28.6 64-64zM320 704c-35.4 0-64-28.6-64-64v-384c0-35.4 28.6-64 64-64h384c35.4 0 64 28.6 64 64v384c0 35.4-28.6 64-64 64h-384zM704 640v-384h-384v384h384z" />
<glyph unicode="&#xe95f;" glyph-name="arrow-down" horiz-adv-x="768" d="M361.4 9.4c12.4-12.4 32.8-12.4 45.2 0l352 352c12.4 12.4 12.4 32.8 0 45.2s-32.8 12.4-45.2 0l-297.4-297.4v754.8c0 17.6-14.4 32-32 32s-32-14.4-32-32v-754.8l-297.4 297.4c-12.4 12.4-32.8 12.4-45.2 0s-12.4-32.8 0-45.2l352-352z" />
<glyph unicode="&#xe960;" glyph-name="arrow-left" horiz-adv-x="896" d="M9.4 470.6c-12.4-12.4-12.4-32.8 0-45.2l352-352c12.4-12.4 32.8-12.4 45.2 0s12.4 32.8 0 45.2l-297.4 297.4h754.8c17.6 0 32 14.4 32 32s-14.4 32-32 32h-754.8l297.4 297.4c12.4 12.4 12.4 32.8 0 45.2s-32.8 12.4-45.2 0l-352-352z" />
<glyph unicode="&#xe961;" glyph-name="chart-line" d="M64 864c0 17.6-14.4 32-32 32s-32-14.4-32-32v-704c0-88.4 71.6-160 160-160h832c17.6 0 32 14.4 32 32s-14.4 32-32 32h-832c-53 0-96 43-96 96v704zM950.6 649.4c12.4 12.4 12.4 32.8 0 45.2s-32.8 12.4-45.2 0l-265.4-265.4-169.4 169.4c-12.4 12.4-32.8 12.4-45.2 0l-224-224c-12.4-12.4-12.4-32.8 0-45.2s32.8-12.4 45.2 0l201.4 201.4 169.4-169.4c12.4-12.4 32.8-12.4 45.2 0l288 288z" />
<glyph unicode="&#xe962;" glyph-name="ellipsis-vertical-solid" horiz-adv-x="256" d="M128 240c-61.856 0-112-50.144-112-112s50.144-112 112-112v0c61.856 0 112 50.144 112 112s-50.144 112-112 112v0zM128 560c-61.856 0-112-50.144-112-112s50.144-112 112-112v0c61.856 0 112 50.144 112 112s-50.144 112-112 112v0zM240 768c0 61.856-50.144 112-112 112s-112-50.144-112-112v0c0-61.856 50.144-112 112-112s112 50.144 112 112v0z" />
<glyph unicode="&#xe963;" glyph-name="arrow-right" horiz-adv-x="896" d="M886.6 425.4c12.4 12.4 12.4 32.8 0 45.2l-352 352c-12.4 12.4-32.8 12.4-45.2 0s-12.4-32.8 0-45.2l297.4-297.4h-754.8c-17.6 0-32-14.4-32-32s14.4-32 32-32h754.8l-297.4-297.4c-12.4-12.4-12.4-32.8 0-45.2s32.8-12.4 45.2 0l352 352z" />
<glyph unicode="&#xe964;" glyph-name="arrow-up" horiz-adv-x="768" d="M406.6 886.6c-12.4 12.4-32.8 12.4-45.2 0l-352-352c-12.4-12.4-12.4-32.8 0-45.2s32.8-12.4 45.2 0l297.4 297.4v-754.8c0-17.6 14.4-32 32-32s32 14.4 32 32v754.8l297.4-297.4c12.4-12.4 32.8-12.4 45.2 0s12.4 32.8 0 45.2l-352 352z" />
<glyph unicode="&#xe965;" glyph-name="arrow-up-right-from-square" d="M672 960c-17.6 0-32-14.4-32-32s14.4-32 32-32h242.8l-489.4-489.4c-12.4-12.4-12.4-32.8 0-45.2s32.8-12.4 45.2 0l489.4 489.4v-242.8c0-17.6 14.4-32 32-32s32 14.4 32 32v320c0 17.6-14.4 32-32 32h-320zM128 896c-70.6 0-128-57.4-128-128v-704c0-70.6 57.4-128 128-128h704c70.6 0 128 57.4 128 128v288c0 17.6-14.4 32-32 32s-32-14.4-32-32v-288c0-35.4-28.6-64-64-64h-704c-35.4 0-64 28.6-64 64v704c0 35.4 28.6 64 64 64h288c17.6 0 32 14.4 32 32s-14.4 32-32 32h-288z" />
<glyph unicode="&#xe966;" glyph-name="user-solid" horiz-adv-x="896" d="M448 448c141.385 0 256 114.615 256 256s-114.615 256-256 256v0c-141.385 0-256-114.615-256-256s114.615-256 256-256v0zM356.6 352c-197 0-356.6-159.6-356.6-356.6 0-32.8 26.6-59.4 59.4-59.4h777.2c32.8 0 59.4 26.6 59.4 59.4 0 197-159.6 356.6-356.6 356.6h-182.8z" />
<glyph unicode="&#xe969;" glyph-name="arrows-retweet-solid" horiz-adv-x="1280" d="M301.2 813.2c-25 25-65.6 25-90.6 0l-192-192c-25-25-25-65.6 0-90.6s65.6-25 90.6 0l82.8 82.8v-293.4c0-106 86-192 192-192h224c35.4 0 64 28.6 64 64s-28.6 64-64 64h-224c-35.4 0-64 28.6-64 64v293.4l82.8-82.8c25-25 65.6-25 90.6 0s25 65.6 0 90.6l-192 192zM672 768c-35.4 0-64-28.6-64-64s28.6-64 64-64h224c35.4 0 64-28.6 64-64v-293.4l-82.8 82.8c-25 25-65.6 25-90.6 0s-25-65.6 0-90.6l192-192c25-25 65.6-25 90.6 0l192 192c25 25 25 65.6 0 90.6s-65.6 25-90.6 0l-82.6-82.8v293.4c0 106-86 192-192 192h-224z" />
<glyph unicode="&#xe96a;" glyph-name="arrows-retweet" horiz-adv-x="1280" d="M233.4 822.6c12.4 12.4 32.8 12.4 45.2 0l176-176c12.4-12.4 12.4-32.8 0-45.2s-32.8-12.4-45.2 0l-121.4 121.4v-434.8c0-53 43-96 96-96h288c17.6 0 32-14.4 32-32s-14.4-32-32-32h-288c-88.4 0-160 71.6-160 160v434.8l-121.4-121.4c-12.4-12.4-32.8-12.4-45.2 0s-12.4 32.8 0 45.2l176 176zM1056 173.2l121.4 121.4c12.4 12.4 32.8 12.4 45.2 0s12.4-32.8 0-45.2l-176-176c-12.4-12.4-32.8-12.4-45.2 0l-176 176c-12.4 12.4-12.4 32.8 0 45.2s32.8 12.4 45.2 0l121.4-121.4v434.8c0 53-43 96-96 96h-288c-17.6 0-32 14.4-32 32s14.4 32 32 32h288c88.4 0 160-71.6 160-160v-434.8z" />
<glyph unicode="&#xe96b;" glyph-name="minus" horiz-adv-x="896" d="M864 448c0-17.6-14.4-32-32-32h-768c-17.6 0-32 14.4-32 32s14.4 32 32 32h768c17.6 0 32-14.4 32-32z" />
<glyph unicode="&#xe96c;" glyph-name="plus" horiz-adv-x="896" d="M480 832c0 17.6-14.4 32-32 32s-32-14.4-32-32v-352h-352c-17.6 0-32-14.4-32-32s14.4-32 32-32h352v-352c0-17.6 14.4-32 32-32s32 14.4 32 32v352h352c17.6 0 32 14.4 32 32s-14.4 32-32 32h-352v352z" />
<glyph unicode="&#xe96d;" glyph-name="ellipsis-solid" horiz-adv-x="896" d="M16 448c0 61.856 50.144 112 112 112s112-50.144 112-112v0c0-61.856-50.144-112-112-112s-112 50.144-112 112v0zM336 448c0 61.856 50.144 112 112 112s112-50.144 112-112v0c0-61.856-50.144-112-112-112s-112 50.144-112 112v0zM768 560c61.856 0 112-50.144 112-112s-50.144-112-112-112v0c-61.856 0-112 50.144-112 112s50.144 112 112 112v0z" />
<glyph unicode="&#xe96e;" glyph-name="robot" horiz-adv-x="1280" d="M640 960c17.6 0 32-14.4 32-32v-160h224c106 0 192-86 192-192v-448c0-106-86-192-192-192h-512c-106 0-192 86-192 192v448c0 106 86 192 192 192h224v160c0 17.6 14.4 32 32 32zM384 704c-70.6 0-128-57.4-128-128v-448c0-70.6 57.4-128 128-128h512c70.6 0 128 57.4 128 128v448c0 70.6-57.4 128-128 128h-512zM416 192h64c17.6 0 32-14.4 32-32s-14.4-32-32-32h-64c-17.6 0-32 14.4-32 32s14.4 32 32 32zM608 192h64c17.6 0 32-14.4 32-32s-14.4-32-32-32h-64c-17.6 0-32 14.4-32 32s14.4 32 32 32zM800 192h64c17.6 0 32-14.4 32-32s-14.4-32-32-32h-64c-17.6 0-32 14.4-32 32s14.4 32 32 32zM448 512c-35.346 0-64-28.654-64-64s28.654-64 64-64v0c35.346 0 64 28.654 64 64s-28.654 64-64 64v0zM576 448c0-70.692-57.308-128-128-128s-128 57.308-128 128v0c0 70.692 57.308 128 128 128s128-57.308 128-128v0zM768 448c0-35.346 28.654-64 64-64s64 28.654 64 64v0c0 35.346-28.654 64-64 64s-64-28.654-64-64v0zM832 320c-70.692 0-128 57.308-128 128s57.308 128 128 128v0c70.692 0 128-57.308 128-128s-57.308-128-128-128v0zM96 512h32v-64h-32c-17.6 0-32-14.4-32-32v-192c0-17.6 14.4-32 32-32h32v-64h-32c-53 0-96 43-96 96v192c0 53 43 96 96 96zM1184 192c17.6 0 32 14.4 32 32v192c0 17.6-14.4 32-32 32h-32v64h32c53 0 96-43 96-96v-192c0-53-43-96-96-96h-32v64h32z" />
<glyph unicode="&#xe973;" glyph-name="grid-1" d="M864 896h-704c-53 0-96-43-96-96v-192c0-53 43-96 96-96h704c53 0 96 43 96 96v192c0 53-43 96-96 96zM896 608c0-17.6-14.4-32-32-32h-704c-17.6 0-32 14.4-32 32v192c0 17.6 14.4 32 32 32h704c17.6 0 32-14.4 32-32v-192zM864 384h-704c-53 0-96-43-96-96v-192c0-53 43-96 96-96h704c53 0 96 43 96 96v192c0 53-43 96-96 96zM896 96c0-17.6-14.4-32-32-32h-704c-17.6 0-32 14.4-32 32v192c0 17.6 14.4 32 32 32h704c17.6 0 32-14.4 32-32v-192z" />
<glyph unicode="&#xe974;" glyph-name="grid-2" d="M160 832c-17.6 0-32-14.4-32-32v-192c0-17.6 14.4-32 32-32h192c17.6 0 32 14.4 32 32v192c0 17.6-14.4 32-32 32h-192zM64 800c0 53 43 96 96 96h192c53 0 96-43 96-96v-192c0-53-43-96-96-96h-192c-53 0-96 43-96 96v192zM160 320c-17.6 0-32-14.4-32-32v-192c0-17.6 14.4-32 32-32h192c17.6 0 32 14.4 32 32v192c0 17.6-14.4 32-32 32h-192zM64 288c0 53 43 96 96 96h192c53 0 96-43 96-96v-192c0-53-43-96-96-96h-192c-53 0-96 43-96 96v192zM864 832h-192c-17.6 0-32-14.4-32-32v-192c0-17.6 14.4-32 32-32h192c17.6 0 32 14.4 32 32v192c0 17.6-14.4 32-32 32zM672 896h192c53 0 96-43 96-96v-192c0-53-43-96-96-96h-192c-53 0-96 43-96 96v192c0 53 43 96 96 96zM672 320c-17.6 0-32-14.4-32-32v-192c0-17.6 14.4-32 32-32h192c17.6 0 32 14.4 32 32v192c0 17.6-14.4 32-32 32h-192zM576 288c0 53 43 96 96 96h192c53 0 96-43 96-96v-192c0-53-43-96-96-96h-192c-53 0-96 43-96 96v192z" />
<glyph unicode="&#xe975;" glyph-name="grid-4" horiz-adv-x="896" d="M48 764.8v83.2h83.2v-83.2h-83.2zM48 525.8v83.2h83.2v-83.2h-83.2zM48 286.8v83.2h83.2v-83.2h-83.2zM48 48v83.2h83.2v-83.2h-83.2zM32 896c-17.6 0-32-14.4-32-32v-115.2c0-17.6 14.4-32 32-32h115.2c17.6 0 32 14.4 32 32v115.2c0 17.6-14.4 32-32 32h-115.2zM32 657c-17.6 0-32-14.4-32-32v-115.2c0-17.6 14.4-32 32-32h115.2c17.6 0 32 14.4 32 32v115.2c0 17.6-14.4 32-32 32h-115.2zM0 386.2v-115.2c0-17.6 14.4-32 32-32h115.2c17.6 0 32 14.4 32 32v115.2c0 17.6-14.4 32-32 32h-115.2c-17.6 0-32-14.4-32-32zM32 179.2c-17.6 0-32-14.4-32-32v-115.2c0-17.6 14.4-32 32-32h115.2c17.6 0 32 14.4 32 32v115.2c0 17.6-14.4 32-32 32h-115.2zM287 764.8v83.2h83.2v-83.2h-83.2zM287 525.8v83.2h83.2v-83.2h-83.2zM287 286.8v83.2h83.2v-83.2h-83.2zM287 47.8v83.2h83.2v-83.2h-83.2zM271 895.8c-17.6 0-32-14.4-32-32v-115.2c0-17.6 14.4-32 32-32h115.2c17.6 0 32 14.4 32 32v115.2c0 17.6-14.4 32-32 32h-115.2zM271 656.8c-17.6 0-32-14.4-32-32v-115.2c0-17.6 14.4-32 32-32h115.2c17.6 0 32 14.4 32 32v115.2c0 17.6-14.4 32-32 32h-115.2zM239 385.8v-115.2c0-17.6 14.4-32 32-32h115.2c17.6 0 32 14.4 32 32v115.2c0 17.6-14.4 32-32 32h-115.2c-17.6 0-32-14.4-32-32zM271 178.8c-17.6 0-32-14.4-32-32v-115.2c0-17.6 14.4-32 32-32h115.2c17.6 0 32 14.4 32 32v115.2c0 17.6-14.4 32-32 32h-115.2zM525.8 848h83.2v-83.2h-83.2v83.2zM525.8 609h83.2v-83.2h-83.2v83.2zM525.8 370h83.2v-83.2h-83.2v83.2zM525.8 131h83.2v-83.2h-83.2v83.2zM477.8 864v-115.2c0-17.6 14.4-32 32-32h115.2c17.6 0 32 14.4 32 32v115.2c0 17.6-14.4 32-32 32h-115.2c-17.6 0-32-14.4-32-32zM477.8 625v-115.2c0-17.6 14.4-32 32-32h115.2c17.6 0 32 14.4 32 32v115.2c0 17.6-14.4 32-32 32h-115.2c-17.6 0-32-14.4-32-32zM509.8 418c-17.6 0-32-14.4-32-32v-115.2c0-17.6 14.4-32 32-32h115.2c17.6 0 32 14.4 32 32v115.2c0 17.6-14.4 32-32 32h-115.2zM477.8 147v-115.2c0-17.6 14.4-32 32-32h115.2c17.6 0 32 14.4 32 32v115.2c0 17.6-14.4 32-32 32h-115.2c-17.6 0-32-14.4-32-32zM764.8 764.8v83.2h83.2v-83.2h-83.2zM764.8 525.8v83.2h83.2v-83.2h-83.2zM764.8 286.8v83.2h83.2v-83.2h-83.2zM764.8 47.8v83.2h83.2v-83.2h-83.2zM748.8 895.8c-17.6 0-32-14.4-32-32v-115.2c0-17.6 14.4-32 32-32h115.2c17.6 0 32 14.4 32 32v115.4c0 17.6-14.4 32-32 32h-115.2zM748.8 656.8c-17.6 0-32-14.4-32-32v-115.2c0-17.6 14.4-32 32-32h115.2c17.6 0 32 14.4 32 32v115.2c0 17.6-14.4 32-32 32h-115.2zM716.8 385.8v-115.2c0-17.6 14.4-32 32-32h115.2c17.6 0 32 14.4 32 32v115.2c0 17.6-14.4 32-32 32h-115.2c-17.6 0-32-14.4-32-32zM748.8 178.8c-17.6 0-32-14.4-32-32v-115.2c0-17.6 14.4-32 32-32h115.2c17.6 0 32 14.4 32 32v115.2c0 17.6-14.4 32-32 32h-115.2z" />
<glyph unicode="&#xe976;" glyph-name="grid-5" horiz-adv-x="896" d="M48 848h32v-32h-32v32zM32 896c-17.6 0-32-14.4-32-32v-64c0-17.6 14.4-32 32-32h64c17.6 0 32 14.4 32 32v64c0 17.6-14.4 32-32 32h-64zM48 656h32v-32h-32v32zM32 704c-17.6 0-32-14.4-32-32v-64c0-17.6 14.4-32 32-32h64c17.6 0 32 14.4 32 32v64c0 17.6-14.4 32-32 32h-64zM48 432v32h32v-32h-32zM0 480v-64c0-17.6 14.4-32 32-32h64c17.6 0 32 14.4 32 32v64c0 17.6-14.4 32-32 32h-64c-17.6 0-32-14.4-32-32zM48 272h32v-32h-32v32zM32 320c-17.6 0-32-14.4-32-32v-64c0-17.6 14.4-32 32-32h64c17.6 0 32 14.4 32 32v64c0 17.6-14.4 32-32 32h-64zM48 48v32h32v-32h-32zM0 96v-64c0-17.6 14.4-32 32-32h64c17.6 0 32 14.4 32 32v64c0 17.6-14.4 32-32 32h-64c-17.6 0-32-14.4-32-32zM240 848h32v-32h-32v32zM224 896c-17.6 0-32-14.4-32-32v-64c0-17.6 14.4-32 32-32h64c17.6 0 32 14.4 32 32v64c0 17.6-14.4 32-32 32h-64zM240 624v32h32v-32h-32zM192 672v-64c0-17.6 14.4-32 32-32h64c17.6 0 32 14.4 32 32v64c0 17.6-14.4 32-32 32h-64c-17.6 0-32-14.4-32-32zM240 464h32v-32h-32v32zM224 512c-17.6 0-32-14.4-32-32v-64c0-17.6 14.4-32 32-32h64c17.6 0 32 14.4 32 32v64c0 17.6-14.4 32-32 32h-64zM240 240v32h32v-32h-32zM192 288v-64c0-17.6 14.4-32 32-32h64c17.6 0 32 14.4 32 32v64c0 17.6-14.4 32-32 32h-64c-17.6 0-32-14.4-32-32zM240 80h32v-32h-32v32zM224 128c-17.6 0-32-14.4-32-32v-64c0-17.6 14.4-32 32-32h64c17.6 0 32 14.4 32 32v64c0 17.6-14.4 32-32 32h-64zM432 816v32h32v-32h-32zM384 864v-64c0-17.6 14.4-32 32-32h64c17.6 0 32 14.4 32 32v64c0 17.6-14.4 32-32 32h-64c-17.6 0-32-14.4-32-32zM432 656h32v-32h-32v32zM416 704c-17.6 0-32-14.4-32-32v-64c0-17.6 14.4-32 32-32h64c17.6 0 32 14.4 32 32v64c0 17.6-14.4 32-32 32h-64zM432 432v32h32v-32h-32zM384 480v-64c0-17.6 14.4-32 32-32h64c17.6 0 32 14.4 32 32v64c0 17.6-14.4 32-32 32h-64c-17.6 0-32-14.4-32-32zM432 272h32v-32h-32v32zM416 320c-17.6 0-32-14.4-32-32v-64c0-17.6 14.4-32 32-32h64c17.6 0 32 14.4 32 32v64c0 17.6-14.4 32-32 32h-64zM432 48v32h32v-32h-32zM384 96v-64c0-17.6 14.4-32 32-32h64c17.6 0 32 14.4 32 32v64c0 17.6-14.4 32-32 32h-64c-17.6 0-32-14.4-32-32zM624 848h32v-32h-32v32zM608 896c-17.6 0-32-14.4-32-32v-64c0-17.6 14.4-32 32-32h64c17.6 0 32 14.4 32 32v64c0 17.6-14.4 32-32 32h-64zM624 624v32h32v-32h-32zM576 672v-64c0-17.6 14.4-32 32-32h64c17.6 0 32 14.4 32 32v64c0 17.6-14.4 32-32 32h-64c-17.6 0-32-14.4-32-32zM624 464h32v-32h-32v32zM608 512c-17.6 0-32-14.4-32-32v-64c0-17.6 14.4-32 32-32h64c17.6 0 32 14.4 32 32v64c0 17.6-14.4 32-32 32h-64zM624 240v32h32v-32h-32zM576 288v-64c0-17.6 14.4-32 32-32h64c17.6 0 32 14.4 32 32v64c0 17.6-14.4 32-32 32h-64c-17.6 0-32-14.4-32-32zM624 80h32v-32h-32v32zM608 128c-17.6 0-32-14.4-32-32v-64c0-17.6 14.4-32 32-32h64c17.6 0 32 14.4 32 32v64c0 17.6-14.4 32-32 32h-64zM816 816v32h32v-32h-32zM768 864v-64c0-17.6 14.4-32 32-32h64c17.6 0 32 14.4 32 32v64c0 17.6-14.4 32-32 32h-64c-17.6 0-32-14.4-32-32zM816 656h32v-32h-32v32zM800 704c-17.6 0-32-14.4-32-32v-64c0-17.6 14.4-32 32-32h64c17.6 0 32 14.4 32 32v64c0 17.6-14.4 32-32 32h-64zM816 432v32h32v-32h-32zM768 480v-64c0-17.6 14.4-32 32-32h64c17.6 0 32 14.4 32 32v64c0 17.6-14.4 32-32 32h-64c-17.6 0-32-14.4-32-32zM816 272h32v-32h-32v32zM800 320c-17.6 0-32-14.4-32-32v-64c0-17.6 14.4-32 32-32h64c17.6 0 32 14.4 32 32v64c0 17.6-14.4 32-32 32h-64zM816 48v32h32v-32h-32zM768 96v-64c0-17.6 14.4-32 32-32h64c17.6 0 32 14.4 32 32v64c0 17.6-14.4 32-32 32h-64c-17.6 0-32-14.4-32-32z" />
</font>
</defs>
</svg>
